<?xml version="1.0" standalone="no"?>
<!DOCTYPE svg PUBLIC "-//W3C//DTD SVG 1.1//EN" "http://www.w3.org/Graphics/SVG/1.1/DTD/svg11.dtd" >
<svg xmlns="http://www.w3.org/2000/svg" xmlns:xlink="http://www.w3.org/1999/xlink" version="1.1">
<metadata>
Created by FontForge 20170731 at Thu Dec 17 13:41:41 2020
 By Aleksey,,,
Copyright 2020 The Plus Jakarta Sans Project Authors (https://github.com/tokotype/PlusJakartaSans)
</metadata>
<defs>
<font id="PlusJakartaSans-Medium" horiz-adv-x="580" >
  <font-face 
    font-family="Plus Jakarta Sans Medium"
    font-weight="500"
    font-stretch="normal"
    units-per-em="1000"
    panose-1="0 0 0 0 0 0 0 0 0 0"
    ascent="800"
    descent="-200"
    x-height="539"
    cap-height="745"
    bbox="-163 -339 1376 1192"
    underline-thickness="40"
    underline-position="-215"
    unicode-range="U+000D-FB02"
  />
<missing-glyph horiz-adv-x="640" 
d="M60 675h520v70h-520v-70zM60 450h520v70h-520v-70zM60 225h520v70h-520v-70zM60 0h520v70h-520v-70z" />
    <glyph glyph-name="fi" unicode="fi" horiz-adv-x="596" 
d="M129 0h94v450h222v-450h93v539h-315v38q0 52 29.5 73.5t75.5 21.5q6 0 17.5 -0.5t18.5 -2.5v83q-9 2 -22.5 3.5t-24.5 1.5q-52 0 -94.5 -21t-68 -61t-25.5 -98v-38h-103v-89h103v-450z" />
    <glyph glyph-name="fl" unicode="fl" horiz-adv-x="634" 
d="M129 0h94v450h246v-450h93v745h-93v-206h-246v38q0 52 29.5 73.5t75.5 21.5q6 0 17.5 -0.5t18.5 -2.5v83q-9 2 -22.5 3.5t-24.5 1.5q-52 0 -94.5 -21t-68 -61t-25.5 -98v-38h-103v-89h103v-450z" />
    <glyph glyph-name="f_f" unicode="ff" horiz-adv-x="785" 
d="M129 0h94v450h293v-450h94v450h128v89h-128v38q0 52 29.5 73.5t75.5 21.5q6 0 17.5 -0.5t18.5 -2.5v83q-9 2 -22.5 3.5t-24.5 1.5q-52 0 -94.5 -21t-68 -61t-25.5 -98v-38h-293v38q0 52 29.5 73.5t75.5 21.5q6 0 17.5 -0.5t18.5 -2.5v83q-9 2 -22.5 3.5t-24.5 1.5
q-52 0 -94.5 -21t-68 -61t-25.5 -98v-38h-103v-89h103v-450z" />
    <glyph glyph-name="f_f_i" unicode="ffi" horiz-adv-x="993" 
d="M129 0h94v450h303v-450h94v450h222v-450h93v539h-315v38q0 52 29.5 73.5t75.5 21.5q6 0 17.5 -0.5t18.5 -2.5v83q-9 2 -22.5 3.5t-24.5 1.5q-52 0 -94.5 -21t-68 -61t-25.5 -98v-38h-303v38q0 52 29.5 73.5t75.5 21.5q6 0 17.5 -0.5t18.5 -2.5v83q-9 2 -22.5 3.5
t-24.5 1.5q-52 0 -94.5 -21t-68 -61t-25.5 -98v-38h-103v-89h103v-450z" />
    <glyph glyph-name="f_f_l" unicode="ffl" horiz-adv-x="1031" 
d="M129 0h94v450h303v-450h94v450h246v-450h93v745h-93v-206h-246v38q0 52 29.5 73.5t75.5 21.5q6 0 17.5 -0.5t18.5 -2.5v83q-9 2 -22.5 3.5t-24.5 1.5q-52 0 -94.5 -21t-68 -61t-25.5 -98v-38h-303v38q0 52 29.5 73.5t75.5 21.5q6 0 17.5 -0.5t18.5 -2.5v83
q-9 2 -22.5 3.5t-24.5 1.5q-52 0 -94.5 -21t-68 -61t-25.5 -98v-38h-103v-89h103v-450z" />
    <glyph glyph-name=".notdef" horiz-adv-x="640" 
d="M60 675h520v70h-520v-70zM60 450h520v70h-520v-70zM60 225h520v70h-520v-70zM60 0h520v70h-520v-70z" />
    <glyph glyph-name=".null" horiz-adv-x="0" 
 />
    <glyph glyph-name="nonmarkingreturn" horiz-adv-x="333" 
 />
    <glyph glyph-name="NULL" horiz-adv-x="0" 
 />
    <glyph glyph-name="NULL" horiz-adv-x="0" 
 />
    <glyph glyph-name="CR" unicode="&#xd;" horiz-adv-x="173" 
 />
    <glyph glyph-name="space" unicode=" " horiz-adv-x="173" 
 />
    <glyph glyph-name="exclam" unicode="!" horiz-adv-x="312" 
d="M113 218h85l7 527h-98zM107 0h98v120h-98v-120z" />
    <glyph glyph-name="quotedbl" unicode="&#x22;" horiz-adv-x="429" 
d="M101 505h65l13 240h-92zM263 505h65l14 240h-93z" />
    <glyph glyph-name="numbersign" unicode="#" horiz-adv-x="832" 
d="M114 0h97l53 185h195l-53 -185h98l53 185h144v85h-120l59 206h145v85h-120l53 184h-98l-53 -184h-195l53 184h-97l-53 -184h-144v-85h120l-60 -206h-144v-85h120zM289 270l59 206h195l-59 -206h-195z" />
    <glyph glyph-name="dollar" unicode="$" horiz-adv-x="646" 
d="M294 -100h75v89q64 6 113 33.5t76.5 72t27.5 101.5q0 146 -178 201l-39 12v253q44 -12 77 -42.5t51 -78.5l84 35q-22 65 -77.5 113.5t-134.5 62.5v93h-75v-88q-63 -4 -111 -31t-75.5 -72.5t-27.5 -103.5q0 -70 43 -124t124 -79l47 -14v-252q-55 11 -96 47.5t-63 96.5
l-85 -35q24 -76 88.5 -131.5t155.5 -67.5v-91zM283 434q-53 17 -79 49.5t-26 72.5q0 48 32 78t84 34v-237zM384 305q50 -15 77 -42t27 -74q0 -46 -32.5 -75.5t-86.5 -35.5v232z" />
    <glyph glyph-name="percent" unicode="%" horiz-adv-x="998" 
d="M255 367q54 0 98 26.5t70 70.5t26 98t-26 98.5t-70 70.5t-98 26t-98.5 -26t-71 -70.5t-26.5 -98.5t26.5 -98t71 -70.5t98.5 -26.5zM143 0h111l608 745h-111zM255 449q-32 0 -57.5 16t-39.5 42t-14 55t14 55t39.5 42.5t57.5 16.5q33 0 57.5 -16.5t38 -42.5t13.5 -55
t-13.5 -55t-38 -42t-57.5 -16zM744 -12q54 0 98 26.5t70 70.5t26 98t-26 98.5t-70 70.5t-98 26t-98.5 -26t-71 -70.5t-26.5 -98.5t26.5 -98t71 -70.5t98.5 -26.5zM744 70q-32 0 -57.5 16t-39.5 42t-14 55t14 55t39.5 42.5t57.5 16.5q33 0 57.5 -16.5t38 -42.5t13.5 -55
t-13.5 -55t-38 -42t-57.5 -16z" />
    <glyph glyph-name="ampersand" unicode="&#x26;" horiz-adv-x="754" 
d="M279 -12q78 0 129.5 33t85.5 74l90 -95h123l-160 171l129 197h-107l-86 -128l-131 141q19 11 43 29t46.5 42t37 56t14.5 72q0 52 -25 91.5t-66.5 62.5t-91.5 23t-92.5 -23t-68 -63.5t-25.5 -94.5q0 -57 26.5 -101.5t58.5 -79.5q-16 -10 -40.5 -27.5t-48.5 -43.5
t-40.5 -62t-16.5 -83q0 -58 28 -101t76.5 -66.5t111.5 -23.5zM219 580q0 40 26 66t65 26t65 -26t26 -65q0 -32 -16.5 -57.5t-41.5 -45t-51 -34.5q-27 29 -50 63.5t-23 72.5zM165 181q0 40 18 68.5t42.5 48.5t45.5 32l159 -168q-25 -34 -59.5 -60.5t-88.5 -26.5
q-52 0 -84.5 28t-32.5 78z" />
    <glyph glyph-name="quotesingle" unicode="'" horiz-adv-x="267" 
d="M101 505h65l13 240h-92z" />
    <glyph glyph-name="parenleft" unicode="(" horiz-adv-x="323" 
d="M218 -150h80q-146 210 -146 448q0 118 37 231.5t109 215.5h-80q-82 -92 -123.5 -205.5t-41.5 -241.5t42 -241.5t123 -206.5z" />
    <glyph glyph-name="parenright" unicode=")" horiz-adv-x="323" 
d="M26 -150h80q164 188 164 448t-164 447h-80q145 -208 145 -447q0 -118 -37 -231t-108 -217z" />
    <glyph glyph-name="asterisk" unicode="*" horiz-adv-x="499" 
d="M167 377l82 109l83 -109l65 47l-81 109l123 42l-25 77l-124 -41v134h-81v-134l-124 41l-25 -77l123 -42l-82 -109z" />
    <glyph glyph-name="plus" unicode="+" horiz-adv-x="624" 
d="M269 0h87v207h206v87h-206v206h-87v-206h-207v-87h207v-207z" />
    <glyph glyph-name="comma" unicode="," horiz-adv-x="299" 
d="M88 -139q117 27 117 174v85h-97v-120h49q-6 -80 -69 -97v-42z" />
    <glyph glyph-name="hyphen" unicode="-" horiz-adv-x="532" 
d="M79 227h375v85h-375v-85z" />
    <glyph glyph-name="period" unicode="." horiz-adv-x="317" 
d="M110 0h97v120h-97v-120z" />
    <glyph glyph-name="slash" unicode="/" horiz-adv-x="455" 
d="M7 -40h105l336 825h-105z" />
    <glyph glyph-name="zero" unicode="0" horiz-adv-x="724" 
d="M363 -12q89 0 155 48t103 135t37 202t-37 201.5t-103.5 134.5t-155.5 48q-88 0 -154.5 -48t-103.5 -134.5t-37 -201.5t37 -201.5t104 -135t155 -48.5zM363 79q-60 0 -104.5 36.5t-69 103t-24.5 154.5q0 89 24.5 154.5t69 102t103.5 36.5q60 0 104.5 -36.5t69 -102
t24.5 -154.5t-24.5 -155t-68.5 -102.5t-104 -36.5z" />
    <glyph glyph-name="one" unicode="1" horiz-adv-x="382" 
d="M178 0h99v745h-240v-85h141v-660z" />
    <glyph glyph-name="two" unicode="2" horiz-adv-x="599" 
d="M54 0h489v85h-353l184 200q52 57 86 100.5t50.5 82.5t16.5 80q0 62 -29 109t-81 73.5t-120 26.5q-62 0 -114 -24t-87 -68t-48 -104l89 -23q16 63 58 97.5t102 34.5q59 0 95 -33t36 -94q0 -37 -17 -70t-54 -75t-97 -107l-206 -223v-68z" />
    <glyph glyph-name="three" unicode="3" horiz-adv-x="610" 
d="M294 -12q75 0 133 32t91 87t33 123q0 61 -25.5 109t-71 77.5t-104.5 36.5l170 210v82h-441v-85h330l-199 -243l21 -45q12 3 29 5.5t33 2.5q70 0 115 -39.5t45 -112.5q0 -72 -44.5 -112t-114.5 -40q-58 0 -103.5 31.5t-66.5 86.5l-83 -34q26 -80 95.5 -126t157.5 -46z" />
    <glyph glyph-name="four" unicode="4" horiz-adv-x="638" 
d="M409 0h92v172h97v81h-97v492h-94l-364 -492v-81h366v-172zM409 253h-266l266 363v-363z" />
    <glyph glyph-name="five" unicode="5" horiz-adv-x="616" 
d="M300 -12q74 0 131.5 32.5t91 88.5t33.5 126q0 69 -31 125t-86 88.5t-128 32.5q-37 0 -70 -9t-62 -29l31 218h316v85h-386l-57 -408l79 -17q17 32 55 53t84 21q45 0 80 -20.5t55.5 -56.5t20.5 -83q0 -45 -20.5 -81t-55.5 -57t-81 -21q-56 0 -103.5 30.5t-68.5 85.5
l-80 -34q18 -52 55 -90.5t88 -59t109 -20.5z" />
    <glyph glyph-name="six" unicode="6" horiz-adv-x="599" 
d="M301 -12q71 0 126.5 31.5t87.5 86t32 123.5t-30.5 122t-83 83.5t-118.5 30.5q-19 0 -36 -2.5t-32 -9.5l224 292h-118l-210 -276q-47 -63 -68 -119.5t-21 -115.5q0 -71 32 -127t87.5 -87.5t127.5 -31.5zM301 76q-42 0 -75.5 19.5t-53 54t-19.5 78.5t19.5 78.5t53 54
t75.5 19.5q43 0 76 -19.5t52 -54t19 -78.5t-19 -78.5t-52.5 -54t-75.5 -19.5z" />
    <glyph glyph-name="seven" unicode="7" horiz-adv-x="548" 
d="M77 0h106l324 661v85h-468v-85h365z" />
    <glyph glyph-name="eight" unicode="8" horiz-adv-x="629" 
d="M315 -12q75 0 132.5 30t90 81.5t32.5 115.5q0 63 -32 113t-90 78q39 25 62 65.5t23 89.5q0 57 -28 101.5t-77.5 69.5t-112.5 25t-112.5 -25.5t-78 -70t-28.5 -100.5q0 -47 22 -88.5t63 -66.5q-57 -27 -89 -77t-32 -114t32.5 -115.5t90 -81.5t132.5 -30zM315 444
q-52 0 -86.5 32t-34.5 83q0 50 34.5 81.5t86.5 31.5q51 0 85 -31.5t34 -81.5q0 -51 -34 -83t-85 -32zM315 73q-70 0 -113 39.5t-43 103.5q0 65 43 104t113 39t113 -39t43 -104q0 -64 -43 -103.5t-113 -39.5z" />
    <glyph glyph-name="nine" unicode="9" horiz-adv-x="599" 
d="M128 0h118l210 276q47 63 68 120t21 115q0 72 -31.5 127.5t-87.5 87t-128 31.5q-70 0 -126 -31t-88 -85.5t-32 -123.5t30.5 -122.5t83 -84t118.5 -30.5q19 0 36 2.5t32 9.5zM298 366q-42 0 -75.5 19.5t-52.5 53.5t-19 78t19.5 78.5t52.5 54.5t75 20q43 0 76 -20
t52.5 -54.5t19.5 -78.5t-19.5 -78t-52.5 -53.5t-76 -19.5z" />
    <glyph glyph-name="colon" unicode=":" horiz-adv-x="317" 
d="M110 419h97v120h-97v-120zM110 0h97v120h-97v-120z" />
    <glyph glyph-name="semicolon" unicode=";" horiz-adv-x="337" 
d="M130 419h97v120h-97v-120zM110 -139q117 27 117 174v85h-97v-120h49q-6 -80 -69 -97v-42z" />
    <glyph glyph-name="less" unicode="&#x3c;" horiz-adv-x="591" 
d="M509 30v99l-316 141l316 140v99l-426 -196v-88z" />
    <glyph glyph-name="equal" unicode="=" horiz-adv-x="684" 
d="M117 321h450v88h-450v-88zM117 84h450v87h-450v-87z" />
    <glyph glyph-name="greater" unicode="&#x3e;" horiz-adv-x="573" 
d="M83 30l426 195v88l-426 196v-99l315 -140l-315 -141v-99z" />
    <glyph glyph-name="question" unicode="?" horiz-adv-x="527" 
d="M182 218h95v11q0 46 24.5 80.5t57.5 66.5q28 28 55 56t45 62t18 77q0 49 -26 91t-73.5 68.5t-112.5 26.5q-58 0 -105.5 -23t-78 -64.5t-39.5 -96.5l88 -20q10 53 46.5 85t87.5 32q55 0 84.5 -30.5t29.5 -69.5q0 -45 -28.5 -78t-63.5 -68q-25 -24 -49 -51.5t-39.5 -62
t-15.5 -79.5v-13zM183 0h97v120h-97v-120z" />
    <glyph glyph-name="at" unicode="@" horiz-adv-x="928" 
d="M483 -79q115 0 203 51l-37 70q-71 -41 -165 -41q-75 0 -136.5 26t-106.5 72.5t-69.5 108t-24.5 133.5q0 97 43 173t119 119.5t174 43.5q99 0 173 -44t115 -119.5t41 -170.5q0 -67 -21.5 -100t-59.5 -33q-27 0 -42.5 17.5t-15.5 54.5v269h-74v-52q-22 29 -59.5 45.5
t-81.5 16.5q-59 0 -106.5 -29t-74.5 -78t-27 -109q0 -61 27.5 -109.5t74 -76t104.5 -27.5q46 0 85 18t62 51q17 -34 52 -51.5t74 -17.5q78 0 123.5 58t45.5 153q0 84 -30.5 159t-86 132.5t-131.5 90t-168 32.5q-89 0 -165.5 -31t-134 -87.5t-89.5 -132.5t-32 -166t32 -166
t89 -133t134 -88.5t167 -31.5zM462 210q-36 0 -65 18t-46 49t-17 69q0 59 36.5 97t91.5 37q56 0 92 -37.5t36 -96.5q0 -58 -36 -97t-92 -39z" />
    <glyph glyph-name="A" unicode="A" horiz-adv-x="672" 
d="M11 0h105l61 175h318l61 -175h105l-267 745h-116zM208 265l128 369l128 -369h-256z" />
    <glyph glyph-name="B" unicode="B" horiz-adv-x="692" 
d="M83 0h314q114 0 180 59t66 162q0 56 -26.5 103t-79.5 77q76 53 76 149q0 89 -58.5 142t-158.5 53h-313v-745zM181 439v217h213q54 0 87 -27.5t33 -77.5q0 -49 -33 -80.5t-87 -31.5h-213zM181 90v261h220q65 0 104 -36t39 -95q0 -60 -39 -95t-104 -35h-220z" />
    <glyph glyph-name="C" unicode="C" horiz-adv-x="779" 
d="M426 -12q77 0 138.5 27t104 70t60.5 92l-90 41q-26 -62 -81 -100.5t-132 -38.5q-78 0 -138.5 37t-94.5 103t-34 153q0 88 34 154t94.5 103t138.5 37q77 0 132 -38.5t81 -100.5l90 41q-18 49 -60.5 92t-104 70t-138.5 27q-79 0 -145.5 -28.5t-116 -80.5t-76.5 -122
t-27 -154q0 -83 27 -153.5t76.5 -122t116 -80t145.5 -28.5z" />
    <glyph glyph-name="D" unicode="D" horiz-adv-x="741" 
d="M83 0h244q113 0 197 47t130 131t46 195q0 112 -46 195.5t-130 130t-197 46.5h-244v-745zM181 90v565h147q82 0 142.5 -34.5t94 -97.5t33.5 -150q0 -86 -33 -150t-93.5 -98.5t-143.5 -34.5h-147z" />
    <glyph glyph-name="E" unicode="E" horiz-adv-x="606" 
d="M83 0h485v90h-387v239h367v90h-367v236h387v90h-485v-745z" />
    <glyph glyph-name="F" unicode="F" horiz-adv-x="583" 
d="M83 0h98v324h339v90h-339v241h374v90h-472v-745z" />
    <glyph glyph-name="G" unicode="G" horiz-adv-x="817" 
d="M427 -12q69 0 131 24t109 69t74 107.5t27 140.5v66h-342v-85h243v-4q0 -67 -32.5 -118t-87 -80t-122.5 -29q-78 0 -138.5 37t-95 103t-34.5 153q0 88 34 154t94.5 103t138.5 37t134 -38t81 -103l88 43q-18 49 -60.5 92t-104 70t-138.5 27q-79 0 -145.5 -28.5t-116 -80.5
t-76.5 -122t-27 -154q0 -83 27.5 -153.5t76.5 -122t116 -80t146 -28.5z" />
    <glyph glyph-name="H" unicode="H" horiz-adv-x="735" 
d="M83 0h98v323h373v-323h99v745h-99v-332h-373v332h-98v-745z" />
    <glyph glyph-name="I" unicode="I" horiz-adv-x="264" 
d="M83 0h98v745h-98v-745z" />
    <glyph glyph-name="J" unicode="J" horiz-adv-x="386" 
d="M50 0h41q98 0 156 58t58 156v531h-99v-533q0 -54 -31 -85.5t-84 -31.5h-41v-95z" />
    <glyph glyph-name="K" unicode="K" horiz-adv-x="662" 
d="M83 0h98v220l117 134l236 -354h117l-285 433l270 312h-123l-332 -381v381h-98v-745z" />
    <glyph glyph-name="L" unicode="L" horiz-adv-x="535" 
d="M83 0h425v90h-327v655h-98v-745z" />
    <glyph glyph-name="M" unicode="M" horiz-adv-x="855" 
d="M83 0h98v566l243 -346h8l242 341v-561h99v745h-90l-254 -364l-256 364h-90v-745z" />
    <glyph glyph-name="N" unicode="N" horiz-adv-x="738" 
d="M83 0h98v558l392 -558h82v745h-99v-550l-391 550h-82v-745z" />
    <glyph glyph-name="O" unicode="O" horiz-adv-x="878" 
d="M439 -12q80 0 148.5 28.5t120.5 80.5t81 122t29 154q0 83 -29 153.5t-81 122t-120.5 80t-148.5 28.5q-79 0 -148 -28.5t-120.5 -80t-80.5 -121.5t-29 -154t29 -154t81 -122t120.5 -80.5t147.5 -28.5zM439 79q-81 0 -144.5 39.5t-99.5 106t-36 148.5t36 148t99 105.5
t145 39.5t145 -39.5t99 -105.5t36 -148t-36 -148.5t-99 -106t-145 -39.5z" />
    <glyph glyph-name="P" unicode="P" horiz-adv-x="645" 
d="M83 0h98v285h165q74 0 130 28t87.5 80t31.5 122q0 71 -31.5 122.5t-87.5 79.5t-130 28h-263v-745zM181 375v280h168q67 0 107 -37.5t40 -102.5q0 -64 -40 -102t-107 -38h-168z" />
    <glyph glyph-name="Q" unicode="Q" horiz-adv-x="878" 
d="M439 -12q71 0 135 23l66 -101h109l-94 143q74 51 118.5 133.5t44.5 186.5q0 83 -29 153.5t-81 122t-120.5 80t-148.5 28.5q-79 0 -148 -28.5t-120.5 -80t-80.5 -121.5t-29 -154t29 -154t81 -122t120.5 -80.5t147.5 -28.5zM439 79q-81 0 -144.5 39.5t-99.5 106t-36 148.5
t36 148t99 105.5t145 39.5t145 -39.5t99 -105.5t36 -148q0 -75 -31 -138.5t-85 -102.5l-109 166h-108l136 -207q-40 -12 -83 -12z" />
    <glyph glyph-name="R" unicode="R" horiz-adv-x="648" 
d="M83 0h98v285h164l161 -285h114l-173 302q68 23 108 78.5t40 134.5q0 71 -31.5 122.5t-87.5 79.5t-130 28h-263v-745zM181 375v280h168q66 0 106.5 -37.5t40.5 -102.5q0 -64 -40.5 -102t-106.5 -38h-168z" />
    <glyph glyph-name="S" unicode="S" horiz-adv-x="646" 
d="M339 -12q73 0 128.5 26.5t87 73.5t31.5 108q0 146 -178 201l-125 37q-53 17 -79 49.5t-26 72.5q0 52 37 82.5t97 30.5q65 0 113.5 -33t71.5 -95l84 35q-17 51 -55.5 92t-93 65t-121.5 24t-119.5 -26.5t-82 -73t-29.5 -107.5q0 -70 43 -124t124 -79l137 -42q50 -15 77 -42
t27 -74q0 -52 -40.5 -82.5t-106.5 -30.5q-72 0 -126 38.5t-80 110.5l-85 -35q18 -57 59 -102.5t100 -72.5t130 -27z" />
    <glyph glyph-name="T" unicode="T" horiz-adv-x="522" 
d="M213 0h99v655h199v90h-500v-90h202v-655z" />
    <glyph glyph-name="U" unicode="U" horiz-adv-x="706" 
d="M353 -12q82 0 143.5 34t96.5 93.5t35 135.5v494h-99v-492q0 -51 -22.5 -90.5t-62 -61.5t-91.5 -22t-91.5 22t-62 61.5t-22.5 90.5v492h-99v-494q0 -76 35 -135.5t97 -93.5t143 -34z" />
    <glyph glyph-name="V" unicode="V" horiz-adv-x="667" 
d="M280 0h108l268 745h-105l-217 -625l-218 625h-105z" />
    <glyph glyph-name="W" unicode="W" horiz-adv-x="996" 
d="M220 0h109l169 606l169 -606h109l209 745h-103l-164 -610l-168 610h-103l-170 -612l-163 612h-103z" />
    <glyph glyph-name="X" unicode="X" horiz-adv-x="618" 
d="M11 0h111l187 291l186 -291h112l-243 378l237 367h-112l-180 -280l-180 280h-112l237 -367z" />
    <glyph glyph-name="Y" unicode="Y" horiz-adv-x="635" 
d="M269 0h99v341l256 404h-111l-195 -308l-196 308h-111l258 -404v-341z" />
    <glyph glyph-name="Z" unicode="Z" 
d="M19 0h542v90h-413l403 583v72h-508v-90h381l-405 -583v-72z" />
    <glyph glyph-name="bracketleft" unicode="[" horiz-adv-x="349" 
d="M94 -150h220v85h-123v725h123v85h-220v-895z" />
    <glyph glyph-name="backslash" unicode="\" horiz-adv-x="455" 
d="M343 -40h105l-336 825h-105z" />
    <glyph glyph-name="bracketright" unicode="]" horiz-adv-x="349" 
d="M35 -150h220v895h-220v-85h123v-725h-123v-85z" />
    <glyph glyph-name="asciicircum" unicode="^" horiz-adv-x="537" 
d="M55 423h106l109 208l107 -208h105l-169 322h-88z" />
    <glyph glyph-name="underscore" unicode="_" horiz-adv-x="620" 
d="M79 -85h462v85h-462v-85z" />
    <glyph glyph-name="grave" unicode="`" horiz-adv-x="392" 
d="M202 640h80l-73 144h-99z" />
    <glyph glyph-name="a" unicode="a" horiz-adv-x="575" 
d="M230 -12q59 0 106 22.5t76 59.5v-70h91v366q0 55 -26.5 96.5t-73.5 65t-109 23.5q-48 0 -92 -17t-77 -46.5t-48 -66.5l81 -42q17 38 52 62t82 24q53 0 85.5 -27.5t32.5 -71.5v-25l-184 -30q-91 -15 -133.5 -60.5t-42.5 -109.5q0 -68 50.5 -110.5t129.5 -42.5zM148 144
q0 35 23.5 59t75.5 33l163 27v-34q0 -45 -21 -82t-59 -58.5t-89 -21.5q-40 0 -66.5 22t-26.5 55z" />
    <glyph glyph-name="b" unicode="b" horiz-adv-x="669" 
d="M351 -12q77 0 137.5 37t95.5 100.5t35 143.5q0 81 -35 144.5t-95 100.5t-137 37q-60 0 -108 -22.5t-79 -62.5v279h-93v-745h91v78q31 -43 80.5 -66.5t107.5 -23.5zM344 78q-50 0 -91 25t-64.5 68.5t-23.5 97.5q0 55 23.5 98t64.5 68.5t91 25.5q51 0 90.5 -25t62.5 -68.5
t23 -98.5q0 -54 -23 -97.5t-62.5 -68.5t-90.5 -25z" />
    <glyph glyph-name="c" unicode="c" horiz-adv-x="603" 
d="M322 -12q53 0 99.5 19t80.5 52t51 74l-83 42q-19 -44 -57.5 -70.5t-90.5 -26.5q-49 0 -88.5 25t-62.5 68.5t-23 97.5q0 56 23 99t62.5 68t88.5 25q51 0 90 -26.5t58 -68.5l83 40q-17 42 -51.5 75t-80.5 51.5t-99 18.5q-79 0 -140.5 -36.5t-96.5 -100t-35 -144.5
q0 -80 35 -144t96.5 -101t140.5 -37z" />
    <glyph glyph-name="d" unicode="d" horiz-adv-x="669" 
d="M317 -12q60 0 109.5 23.5t79.5 67.5v-79h91v745h-94v-278q-31 40 -79 62t-107 22q-76 0 -136.5 -37t-95.5 -100.5t-35 -144.5q0 -80 35 -143.5t95.5 -100.5t136.5 -37zM325 78q-51 0 -91 25t-63 68.5t-23 97.5q0 55 23 98.5t63.5 68.5t90.5 25q51 0 91 -25.5t63.5 -68.5
t23.5 -98q0 -54 -23.5 -97.5t-63.5 -68.5t-91 -25z" />
    <glyph glyph-name="e" unicode="e" horiz-adv-x="614" 
d="M320 -12q83 0 144 39t86 95l-78 40q-23 -39 -60 -64t-91 -25q-45 0 -83.5 20.5t-63 58.5t-26.5 90h412q5 27 5 50q0 67 -30 126t-86.5 96t-136.5 37q-75 0 -134 -36t-93.5 -99.5t-34.5 -144.5t35 -145t96 -101t139 -37zM312 468q41 0 75 -18.5t55 -51.5t22 -76h-314
q10 68 56 107t106 39z" />
    <glyph glyph-name="f" unicode="f" horiz-adv-x="397" 
d="M129 0h94v450h128v89h-128v38q0 52 29.5 73.5t75.5 21.5q6 0 17.5 -0.5t18.5 -2.5v83q-9 2 -22.5 3.5t-24.5 1.5q-52 0 -94.5 -21t-68 -61t-25.5 -98v-38h-103v-89h103v-450z" />
    <glyph glyph-name="g" unicode="g" horiz-adv-x="659" 
d="M329 -220q75 0 133.5 31.5t91.5 86.5t33 125v516h-91v-75q-32 41 -79 64t-104 23q-76 0 -135.5 -35.5t-93.5 -96.5t-34 -137t34.5 -137t94 -96.5t135.5 -35.5q55 0 102 22t77 63v-75q0 -49 -22.5 -83.5t-59.5 -52t-83 -17.5q-60 0 -99.5 26.5t-53.5 64.5l-87 -40
q27 -63 91 -102t150 -39zM322 103q-50 0 -89.5 24t-62 64.5t-22.5 90.5t23 90.5t62.5 64.5t88.5 24q48 0 87 -24t61.5 -64.5t22.5 -90.5q0 -49 -22.5 -90t-61.5 -65t-87 -24z" />
    <glyph glyph-name="h" unicode="h" 
d="M72 0h93v319q0 66 37.5 104t93.5 38t92.5 -37.5t36.5 -104.5v-319h94v349q0 58 -26.5 103.5t-72 72t-103.5 26.5q-49 0 -88.5 -19.5t-63.5 -55.5v272h-93v-748z" />
    <glyph glyph-name="i" unicode="i" horiz-adv-x="237" 
d="M72 625h93v120h-93v-120zM72 0h93v539h-93v-539z" />
    <glyph glyph-name="j" unicode="j" horiz-adv-x="237" 
d="M72 625h93v120h-93v-120zM-20 -220q53 0 94.5 20.5t66 60t24.5 97.5v581h-93v-581q0 -47 -27 -70t-68 -23q-20 0 -40 3v-84q8 -2 21 -3t22 -1z" />
    <glyph glyph-name="k" unicode="k" horiz-adv-x="558" 
d="M72 0h93v162l92 97l179 -259h110l-221 322l207 217h-119l-248 -253v467h-93v-753z" />
    <glyph glyph-name="l" unicode="l" horiz-adv-x="237" 
d="M72 0h93v745h-93v-745z" />
    <glyph glyph-name="m" unicode="m" horiz-adv-x="913" 
d="M72 0h93v319q0 66 36 104t90 38q55 0 89.5 -37.5t34.5 -104.5v-319h94v319q0 66 35.5 104t90.5 38q54 0 89 -37.5t35 -104.5v-319h94v349q0 58 -27 103.5t-72.5 72t-101.5 26.5q-54 0 -98.5 -25t-70.5 -73q-24 45 -69.5 71.5t-100.5 26.5q-48 0 -87.5 -20.5t-62.5 -58.5
v67h-91v-539z" />
    <glyph glyph-name="n" unicode="n" 
d="M72 0h93v319q0 66 37 104t94 38t93 -37.5t36 -104.5v-319h94v349q0 58 -26.5 103.5t-72 72t-103.5 26.5q-50 0 -90 -20.5t-64 -57.5v66h-91v-539z" />
    <glyph glyph-name="o" unicode="o" horiz-adv-x="654" 
d="M328 -12q76 0 139 36t100.5 100t37.5 146q0 81 -36.5 144.5t-99.5 100t-141 36.5q-79 0 -142 -36.5t-99.5 -100t-36.5 -144.5t37 -145t100 -100.5t141 -36.5zM328 78q-51 0 -91.5 25t-64.5 68.5t-24 98.5t24 98t64.5 68t91.5 25q50 0 90.5 -25t64 -68t23.5 -98
t-23.5 -98.5t-64 -68.5t-90.5 -25z" />
    <glyph glyph-name="p" unicode="p" horiz-adv-x="669" 
d="M72 -200h93v275q31 -42 79.5 -64.5t106.5 -22.5q77 0 137.5 37t95.5 100.5t35 143.5q0 81 -35 144.5t-95 100.5t-137 37q-61 0 -109.5 -23.5t-79.5 -64.5v76h-91v-739zM344 78q-50 0 -91 25t-64.5 68.5t-23.5 97.5q0 55 23.5 98t64.5 68.5t91 25.5q51 0 90.5 -25
t62.5 -68.5t23 -98.5q0 -54 -23 -97.5t-62.5 -68.5t-90.5 -25z" />
    <glyph glyph-name="q" unicode="q" horiz-adv-x="669" 
d="M503 -200h94v739h-91v-76q-31 41 -79.5 64.5t-109.5 23.5q-76 0 -136.5 -37t-95.5 -100.5t-35 -144.5q0 -80 35 -143.5t95.5 -100.5t136.5 -37q58 0 107 22.5t79 64.5v-275zM325 78q-51 0 -91 25t-63 68.5t-23 97.5q0 55 23 98.5t63.5 68.5t90.5 25q51 0 91 -25.5
t63.5 -68.5t23.5 -98q0 -54 -23.5 -97.5t-63.5 -68.5t-91 -25z" />
    <glyph glyph-name="r" unicode="r" horiz-adv-x="350" 
d="M72 0h93v321q0 65 35 100.5t92 35.5h47v88h-33q-50 0 -86 -17.5t-57 -52.5v64h-91v-539z" />
    <glyph glyph-name="s" unicode="s" horiz-adv-x="511" 
d="M265 -12q58 0 102 20t69 55.5t25 81.5q0 56 -37 96t-102 59l-88 26q-16 5 -33 12.5t-29 22t-12 37.5q0 32 24.5 52t64.5 20q44 0 80.5 -24.5t54.5 -66.5l76 35q-24 65 -80.5 101t-127.5 36q-53 0 -95.5 -20t-67 -55.5t-24.5 -83.5q0 -52 33.5 -91.5t106.5 -59.5l81 -23
q17 -4 35.5 -12.5t32 -23t13.5 -38.5q0 -34 -29 -55t-73 -21q-49 0 -89 27.5t-63 76.5l-74 -36q25 -68 85 -108t141 -40z" />
    <glyph glyph-name="t" unicode="t" horiz-adv-x="396" 
d="M291 -6q11 0 27 1t29 4v83q-9 -1 -19 -2t-18 -1q-49 0 -69.5 24.5t-20.5 65.5v281h121v89h-121v124h-93v-44q0 -37 -21 -58.5t-57 -21.5h-20v-89h98v-284q0 -82 42.5 -127t121.5 -45z" />
    <glyph glyph-name="u" unicode="u" 
d="M263 -12q50 0 90 20.5t64 57.5v-66h91v539h-94v-319q0 -66 -36.5 -104t-93.5 -38q-58 0 -94 36.5t-36 97.5v327h-93v-337q0 -63 26 -111.5t71.5 -75.5t104.5 -27z" />
    <glyph glyph-name="v" unicode="v" horiz-adv-x="533" 
d="M222 0h88l212 539h-104l-152 -408l-151 408h-104z" />
    <glyph glyph-name="w" unicode="w" horiz-adv-x="826" 
d="M196 0h89l128 406l128 -406h89l185 539h-102l-130 -395l-126 395h-88l-126 -395l-129 395h-103z" />
    <glyph glyph-name="x" unicode="x" horiz-adv-x="511" 
d="M11 0h114l131 193l131 -193h112l-187 270l188 269h-113l-131 -192l-132 192h-112l188 -269z" />
    <glyph glyph-name="y" unicode="y" horiz-adv-x="553" 
d="M101 -220q53 0 90.5 21t64 56.5t43.5 78.5l243 603h-103l-163 -421l-164 421h-101l214 -540l-16 -39q-22 -50 -46.5 -71t-71.5 -21q-16 0 -32.5 2.5t-27.5 4.5v-83q16 -7 34 -9.5t36 -2.5z" />
    <glyph glyph-name="z" unicode="z" horiz-adv-x="460" 
d="M19 0h422v89h-293l291 371v79h-404v-89h278l-294 -371v-79z" />
    <glyph glyph-name="braceleft" unicode="{" horiz-adv-x="344" 
d="M271 -150h38v85h-38q-27 0 -42.5 17.5t-14.5 45.5v185q1 35 -12.5 64.5t-39.5 48.5q55 44 52 117v184q-1 29 14.5 46t42.5 17h38v85h-38q-71 0 -113 -39.5t-42 -107.5v-192q0 -31 -14.5 -49.5t-45.5 -18.5h-29v-85h29q31 0 45.5 -18.5t14.5 -49.5v-187q0 -67 42 -107.5
t113 -40.5z" />
    <glyph glyph-name="bar" unicode="|" horiz-adv-x="332" 
d="M117 -190h98v1035h-98v-1035z" />
    <glyph glyph-name="braceright" unicode="}" horiz-adv-x="344" 
d="M35 -150h38q71 0 113 40.5t42 107.5v187q0 31 15 49.5t45 18.5h29v85h-29q-30 0 -45 18.5t-15 49.5v192q0 68 -42 107.5t-113 39.5h-38v-85h38q27 0 43 -17t15 -46v-184q-2 -35 11.5 -65.5t39.5 -51.5q-25 -19 -38.5 -48.5t-12.5 -64.5v-185q1 -28 -15 -45.5t-43 -17.5
h-38v-85z" />
    <glyph glyph-name="asciitilde" unicode="~" horiz-adv-x="644" 
d="M419 210q120 0 132 148h-80q-6 -34 -22.5 -49.5t-40.5 -15.5q-23 0 -41.5 10.5t-37.5 24t-43 24t-57 10.5q-58 0 -94.5 -37.5t-42.5 -110.5h81q9 65 67 65q23 0 41.5 -10.5t37.5 -24t43 -24t57 -10.5z" />
    <glyph glyph-name="uni00A0" unicode="&#xa0;" horiz-adv-x="173" 
 />
    <glyph glyph-name="exclamdown" unicode="&#xa1;" horiz-adv-x="312" 
d="M107 419h98v120h-98v-120zM107 -206h98l-7 527h-85z" />
    <glyph glyph-name="cent" unicode="&#xa2;" horiz-adv-x="603" 
d="M279 0h75v94q69 8 122.5 47.5t76.5 94.5l-83 42q-16 -37 -46 -61.5t-70 -31.5v376q40 -7 70 -31.5t46 -60.5l83 41q-23 57 -76.5 95.5t-122.5 46.5v93h-75v-94q-68 -10 -119.5 -48t-80.5 -97t-29 -132t29 -132.5t80.5 -98t119.5 -48.5v-95zM148 373q0 71 36.5 121
t94.5 65v-372q-58 15 -94.5 65.5t-36.5 120.5z" />
    <glyph glyph-name="sterling" unicode="&#xa3;" horiz-adv-x="650" 
d="M41 0h533v85h-334v258h174v71h-174v117q0 65 36.5 102t101.5 37q58 0 96.5 -32.5t45.5 -94.5l89 23q-7 59 -39.5 102t-82 66t-109.5 23q-72 0 -125.5 -28.5t-82.5 -79t-29 -118.5v-117h-100v-71h100v-258h-100v-85z" />
    <glyph glyph-name="currency" unicode="&#xa4;" horiz-adv-x="590" 
d="M108 24l77 76q51 -34 110 -34q32 0 59.5 9t51.5 25l77 -76l58 58l-77 76q16 24 25 52t9 59t-9 58.5t-25 52.5l77 77l-58 58l-77 -77q-51 34 -111 34q-30 0 -58 -9t-52 -25l-77 77l-58 -58l77 -77q-16 -25 -25.5 -53t-9.5 -58q0 -31 9.5 -59t25.5 -52l-77 -76zM295 156
q-47 0 -80.5 33t-33.5 80q0 32 15.5 57.5t41.5 41t57 15.5t56.5 -15.5t41 -41t15.5 -57.5q0 -31 -15.5 -57t-41 -41t-56.5 -15z" />
    <glyph glyph-name="yen" unicode="&#xa5;" horiz-adv-x="635" 
d="M131 150h138v-150h99v150h136v72h-136v80h136v71h-116l236 372h-111l-195 -308l-196 308h-111l238 -372h-118v-71h138v-80h-138v-72z" />
    <glyph glyph-name="brokenbar" unicode="&#xa6;" horiz-adv-x="332" 
d="M117 428h98v417h-98v-417zM117 -190h98v418h-98v-418z" />
    <glyph glyph-name="section" unicode="&#xa7;" horiz-adv-x="531" 
d="M276 -102q60 0 106.5 21.5t72.5 58.5t26 85q0 42 -20.5 75.5t-57.5 57.5q36 22 57 56.5t21 76.5q0 58 -38.5 100t-107.5 63l-94 27q-16 5 -34.5 13.5t-31.5 24t-13 39.5q0 35 26.5 56.5t70.5 21.5q47 0 85.5 -25.5t57.5 -70.5l77 37q-25 67 -84.5 104.5t-132.5 37.5
q-55 0 -99.5 -21t-70.5 -58.5t-26 -87.5q0 -40 19.5 -73t59.5 -56q-36 -22 -57.5 -57t-21.5 -80q0 -54 35.5 -94.5t111.5 -62.5l86 -25q19 -5 38.5 -14.5t33.5 -25.5t14 -41q0 -37 -31 -59.5t-78 -22.5q-52 0 -94.5 29.5t-66.5 80.5l-76 -36q26 -71 89 -113t148 -42z
M246 252q-19 6 -38.5 16t-32.5 28.5t-13 46.5q0 32 17.5 55t47.5 31l67 -20q21 -6 42 -17.5t35 -30t14 -46.5q0 -30 -16.5 -52.5t-43.5 -33.5z" />
    <glyph glyph-name="dieresis" unicode="&#xa8;" horiz-adv-x="519" 
d="M173 655q26 0 44 18t18 45q0 26 -18 44t-44 18q-27 0 -45 -18t-18 -44t18 -44.5t45 -18.5zM348 655q26 0 44 18t18 45q0 26 -18 44t-44 18q-27 0 -45 -18t-18 -44t18 -44.5t45 -18.5z" />
    <glyph glyph-name="copyright" unicode="&#xa9;" horiz-adv-x="909" 
d="M455 -12q80 0 149.5 29.5t122 82.5t82.5 123t30 150t-29.5 149.5t-82.5 122t-122.5 82.5t-149.5 30q-81 0 -150.5 -30t-122.5 -82.5t-82.5 -122t-29.5 -149.5t29.5 -150t82.5 -123t123 -82.5t150 -29.5zM455 66q-64 0 -120 23.5t-98 65.5t-65.5 98t-23.5 120t23.5 120
t65.5 98t98 65.5t120 23.5t120 -24t98 -66t65.5 -97.5t23.5 -119.5t-23.5 -120t-65.5 -98t-98 -65.5t-120 -23.5zM461 163q65 0 110.5 32t61.5 75l-71 32q-12 -28 -38.5 -47t-62.5 -19q-55 0 -89.5 38t-34.5 99t34.5 99t89.5 38q38 0 64 -19.5t37 -47.5l71 32
q-16 44 -61.5 75.5t-110.5 31.5q-58 0 -104.5 -27t-73 -74t-26.5 -108q0 -60 26.5 -107.5t73 -75t104.5 -27.5z" />
    <glyph glyph-name="ordfeminine" unicode="&#xaa;" horiz-adv-x="452" 
d="M180 359q39 0 69.5 13.5t51.5 37.5v-43h79v254q0 59 -43 96.5t-111 37.5q-53 0 -98 -26t-62 -71l70 -34q11 26 33.5 42t53.5 16q32 0 53 -17t21 -44v-13l-118 -20q-64 -10 -96.5 -41.5t-32.5 -79.5q0 -49 36 -78.5t94 -29.5zM137 471q0 44 58 54l102 17v-18
q0 -42 -29 -71t-75 -29q-24 0 -40 13t-16 34z" />
    <glyph glyph-name="guillemotleft" unicode="&#xab;" horiz-adv-x="585" 
d="M187 77h108l-152 192l152 193h-108l-153 -193zM442 77h108l-152 192l152 193h-108l-153 -193z" />
    <glyph glyph-name="logicalnot" unicode="&#xac;" horiz-adv-x="693" 
d="M488 40h88v254h-500v-87h412v-167z" />
    <glyph glyph-name="uni00AD" unicode="&#xad;" horiz-adv-x="532" 
d="M79 227h375v85h-375v-85z" />
    <glyph glyph-name="registered" unicode="&#xae;" horiz-adv-x="653" 
d="M327 272q71 0 129 34.5t92.5 93t34.5 128.5q0 71 -34.5 129t-92.5 92.5t-129 34.5t-129.5 -34.5t-93 -92.5t-34.5 -129q0 -70 34.5 -128.5t93 -93t129.5 -34.5zM327 334q-54 0 -98.5 26t-70.5 70t-26 98t26 98t70 70t99 26q53 0 97 -26t70.5 -70t26.5 -98t-26 -98
t-70 -70t-98 -26zM225 394h64v94h42l53 -94h70l-62 106q44 24 44 76q0 44 -28 66t-70 22h-113v-270zM289 543v65h49q16 0 25 -9t9 -23q0 -13 -9 -23t-25 -10h-49z" />
    <glyph glyph-name="macron" unicode="&#xaf;" horiz-adv-x="486" 
d="M110 666h267v73h-267v-73z" />
    <glyph glyph-name="degree" unicode="&#xb0;" horiz-adv-x="500" 
d="M250 434q46 0 82.5 21.5t58 58t21.5 81.5q0 46 -21.5 82.5t-58 58t-82.5 21.5t-83 -21.5t-58.5 -58t-21.5 -82.5q0 -45 21.5 -81.5t58.5 -58t83 -21.5zM249 506q-37 0 -63 24.5t-26 64.5q0 41 26 66t63 25q38 0 64.5 -25t26.5 -66q0 -40 -26.5 -64.5t-64.5 -24.5z" />
    <glyph glyph-name="plusminus" unicode="&#xb1;" horiz-adv-x="624" 
d="M269 158h87v164h206v87h-206v164h-87v-164h-207v-87h207v-164zM62 0h500v88h-500v-88z" />
    <glyph glyph-name="uni00B2" unicode="&#xb2;" horiz-adv-x="421" 
d="M34 223h349v75h-234l125 132q46 48 72.5 88.5t26.5 88.5q0 64 -46 105t-120 41q-63 0 -113 -36.5t-63 -99.5l77 -23q11 39 37 59.5t62 20.5q35 0 57 -20t22 -56q0 -22 -11 -42t-34.5 -47t-63.5 -70l-143 -151v-65z" />
    <glyph glyph-name="uni00B3" unicode="&#xb3;" horiz-adv-x="432" 
d="M209 215q54 0 96 23t66 62.5t24 88.5q0 63 -36 104t-96 50l111 132v70h-316v-74h218l-137 -160l20 -40q11 4 24.5 6.5t25.5 2.5q44 0 71.5 -24.5t27.5 -68.5t-27.5 -69t-71.5 -25q-36 0 -63.5 19.5t-41.5 55.5l-75 -28q16 -57 66.5 -91t113.5 -34z" />
    <glyph glyph-name="acute" unicode="&#xb4;" horiz-adv-x="392" 
d="M110 640h80l92 144h-99z" />
    <glyph glyph-name="uni00B5" unicode="&#xb5;" 
d="M61 -140h93v159q49 -31 109 -31q51 0 91 20.5t63 59.5v-68h91v539h-94v-319q0 -66 -36.5 -104t-93.5 -38q-58 0 -94 36.5t-36 97.5v327h-93v-679z" />
    <glyph glyph-name="paragraph" unicode="&#xb6;" horiz-adv-x="453" 
d="M238 -100h98v845h-98q-52 0 -93.5 -23.5t-65 -64.5t-23.5 -92t23.5 -91.5t65 -64.5t93.5 -24v-485z" />
    <glyph glyph-name="periodcentered" unicode="&#xb7;" horiz-adv-x="317" 
d="M110 209h97v120h-97v-120z" />
    <glyph glyph-name="cedilla" unicode="&#xb8;" horiz-adv-x="416" 
d="M188 -207q58 0 88.5 27.5t30.5 66.5q0 35 -24 55.5t-59 20.5q-9 0 -19 -2l6 62h-63l-13 -107l21 -9q18 9 40 9q35 0 35 -32q0 -37 -49 -37q-12 0 -29 2.5t-31 7.5l-12 -50q16 -7 38 -10.5t40 -3.5z" />
    <glyph glyph-name="uni00B9" unicode="&#xb9;" horiz-adv-x="306" 
d="M119 223h88v522h-188v-75h100v-447z" />
    <glyph glyph-name="ordmasculine" unicode="&#xba;" horiz-adv-x="498" 
d="M249 359q55 0 100 25.5t72 70t27 102.5t-26.5 102.5t-71.5 70t-101 25.5q-55 0 -100.5 -25.5t-72 -70t-26.5 -102.5q0 -57 27 -101.5t72 -70.5t100 -26zM249 437q-49 0 -80.5 34.5t-31.5 85.5q0 52 31.5 86t80.5 34q48 0 79.5 -34t31.5 -86t-31.5 -86t-79.5 -34z" />
    <glyph glyph-name="guillemotright" unicode="&#xbb;" horiz-adv-x="585" 
d="M290 77h108l152 192l-152 193h-108l152 -193zM35 77h108l152 192l-152 193h-108l152 -193z" />
    <glyph glyph-name="onequarter" unicode="&#xbc;" horiz-adv-x="888" 
d="M100 328h79v417h-160v-67h81v-350zM116 0h90l446 745h-90zM714 0h78v92h62v66h-62v259h-83l-186 -259v-66h191v-92zM714 158h-113l113 162v-162z" />
    <glyph glyph-name="onehalf" unicode="&#xbd;" horiz-adv-x="843" 
d="M100 328h79v417h-160v-67h81v-350zM116 0h90l446 745h-90zM524 0h281v68h-179l97 102q32 33 54 65t22 72q0 51 -37.5 84t-98.5 33q-50 0 -90.5 -29t-51.5 -78l69 -23q8 29 28 44t45 15q24 0 40.5 -14.5t16.5 -40.5q0 -23 -19 -47.5t-64 -71.5l-113 -119v-60z" />
    <glyph glyph-name="threequarters" unicode="&#xbe;" horiz-adv-x="972" 
d="M175 321q44 0 78 19t53.5 51t19.5 72q0 49 -27 81.5t-74 40.5l85 97v63h-257v-66h168l-107 -122l18 -38q18 9 43 9q34 0 53.5 -17.5t19.5 -48.5q0 -32 -20.5 -50.5t-52.5 -18.5q-56 0 -77 56l-69 -25q12 -46 53.5 -74.5t92.5 -28.5zM200 0h90l446 745h-90zM798 0h78v92
h62v66h-62v259h-83l-186 -259v-66h191v-92zM798 158h-113l113 162v-162z" />
    <glyph glyph-name="questiondown" unicode="&#xbf;" horiz-adv-x="527" 
d="M247 419h97v120h-97v-120zM262 -218q59 0 106.5 23t78 64.5t39.5 96.5l-88 20q-10 -53 -46.5 -85t-88.5 -32q-55 0 -84.5 30.5t-29.5 69.5q0 45 29 78t64 67q26 25 49.5 52.5t39 62t15.5 78.5v14h-95v-11q0 -46 -25 -80.5t-57 -66.5q-28 -27 -55 -55.5t-45 -62t-18 -77.5
q0 -48 26 -90.5t73.5 -69t111.5 -26.5z" />
    <glyph glyph-name="Agrave" unicode="&#xc0;" horiz-adv-x="672" 
d="M11 0h105l61 175h318l61 -175h105l-267 745h-116zM208 265l128 369l128 -369h-256zM296 847h80l-73 144h-99z" />
    <glyph glyph-name="Aacute" unicode="&#xc1;" horiz-adv-x="672" 
d="M11 0h105l61 175h318l61 -175h105l-267 745h-116zM208 265l128 369l128 -369h-256zM296 847h80l92 144h-99z" />
    <glyph glyph-name="Acircumflex" unicode="&#xc2;" horiz-adv-x="672" 
d="M11 0h105l61 175h318l61 -175h105l-267 745h-116zM208 265l128 369l128 -369h-256zM174 847h86l76 94l78 -94h85l-116 144h-95z" />
    <glyph glyph-name="Atilde" unicode="&#xc3;" horiz-adv-x="672" 
d="M11 0h105l61 175h318l61 -175h105l-267 745h-116zM208 265l128 369l128 -369h-256zM401 878q38 0 60 27.5t23 80.5h-64q-1 -17 -9 -29t-23 -12q-18 0 -32 11.5t-32 23t-48 11.5q-37 0 -61 -27.5t-25 -81.5h63q5 42 33 42q19 0 33 -11.5t32.5 -23t49.5 -11.5z" />
    <glyph glyph-name="Adieresis" unicode="&#xc4;" horiz-adv-x="672" 
d="M11 0h105l61 175h318l61 -175h105l-267 745h-116zM208 265l128 369l128 -369h-256zM250 862q26 0 44 18t18 45q0 26 -18 44t-44 18q-27 0 -45 -18t-18 -44t18 -44.5t45 -18.5zM425 862q26 0 44 18t18 45q0 26 -18 44t-44 18q-27 0 -45 -18t-18 -44t18 -44.5t45 -18.5z
" />
    <glyph glyph-name="Aring" unicode="&#xc5;" horiz-adv-x="672" 
d="M11 0h105l61 175h318l61 -175h105l-267 745h-116zM208 265l128 369l128 -369h-256zM336 795q52 0 87 35t35 86q0 52 -35 87t-87 35t-87.5 -35t-35.5 -87q0 -51 35.5 -86t87.5 -35zM335 854q-26 0 -44 17.5t-18 44.5q0 28 18 45.5t44 17.5t44 -17.5t18 -45.5
q0 -27 -18 -44.5t-44 -17.5z" />
    <glyph glyph-name="AE" unicode="&#xc6;" horiz-adv-x="987" 
d="M11 0h105l61 175h286v-175h485l1 90h-387v239h367v90h-367v236h387v90h-671zM208 265l136 390h119v-390h-255z" />
    <glyph glyph-name="Ccedilla" unicode="&#xc7;" horiz-adv-x="779" 
d="M426 -12q77 0 138.5 27t104 70t60.5 92l-90 41q-26 -62 -81 -100.5t-132 -38.5q-78 0 -138.5 37t-94.5 103t-34 153q0 88 34 154t94.5 103t138.5 37q77 0 132 -38.5t81 -100.5l90 41q-18 49 -60.5 92t-104 70t-138.5 27q-79 0 -145.5 -28.5t-116 -80.5t-76.5 -122
t-27 -154q0 -83 27 -153.5t76.5 -122t116 -80t145.5 -28.5zM398 -230q58 0 88.5 27.5t30.5 66.5q0 35 -24 55.5t-59 20.5q-9 0 -19 -2l6 62h-63l-13 -107l21 -9q18 9 40 9q35 0 35 -32q0 -37 -49 -37q-12 0 -29 2.5t-31 7.5l-12 -50q16 -7 38 -10.5t40 -3.5z" />
    <glyph glyph-name="Egrave" unicode="&#xc8;" horiz-adv-x="606" 
d="M83 0h485v90h-387v239h367v90h-367v236h387v90h-485v-745zM285 847h80l-73 144h-99z" />
    <glyph glyph-name="Eacute" unicode="&#xc9;" horiz-adv-x="606" 
d="M83 0h485v90h-387v239h367v90h-367v236h387v90h-485v-745zM285 847h80l92 144h-99z" />
    <glyph glyph-name="Ecircumflex" unicode="&#xca;" horiz-adv-x="606" 
d="M83 0h485v90h-387v239h367v90h-367v236h387v90h-485v-745zM163 847h86l76 94l78 -94h85l-116 144h-95z" />
    <glyph glyph-name="Edieresis" unicode="&#xcb;" horiz-adv-x="606" 
d="M83 0h485v90h-387v239h367v90h-367v236h387v90h-485v-745zM239 862q26 0 44 18t18 45q0 26 -18 44t-44 18q-27 0 -45 -18t-18 -44t18 -44.5t45 -18.5zM414 862q26 0 44 18t18 45q0 26 -18 44t-44 18q-27 0 -45 -18t-18 -44t18 -44.5t45 -18.5z" />
    <glyph glyph-name="Igrave" unicode="&#xcc;" horiz-adv-x="264" 
d="M83 0h98v745h-98v-745zM92 847h80l-73 144h-99z" />
    <glyph glyph-name="Iacute" unicode="&#xcd;" horiz-adv-x="264" 
d="M83 0h98v745h-98v-745zM92 847h80l92 144h-99z" />
    <glyph glyph-name="Icircumflex" unicode="&#xce;" horiz-adv-x="264" 
d="M83 0h98v745h-98v-745zM-30 847h86l76 94l78 -94h85l-116 144h-95z" />
    <glyph glyph-name="Idieresis" unicode="&#xcf;" horiz-adv-x="264" 
d="M83 0h98v745h-98v-745zM46 862q26 0 44 18t18 45q0 26 -18 44t-44 18q-27 0 -45 -18t-18 -44t18 -44.5t45 -18.5zM221 862q26 0 44 18t18 45q0 26 -18 44t-44 18q-27 0 -45 -18t-18 -44t18 -44.5t45 -18.5z" />
    <glyph glyph-name="Eth" unicode="&#xd0;" horiz-adv-x="741" 
d="M83 0h244q113 0 197 47t130 131t46 195q0 112 -46 195.5t-130 130t-197 46.5h-244v-337h-88v-71h88v-337zM181 90v247h189v71h-189v247h147q82 0 142.5 -34.5t94 -97.5t33.5 -150q0 -86 -33 -150t-93.5 -98.5t-143.5 -34.5h-147z" />
    <glyph glyph-name="Ntilde" unicode="&#xd1;" horiz-adv-x="738" 
d="M83 0h98v558l392 -558h82v745h-99v-550l-391 550h-82v-745zM433 878q38 0 60 27.5t23 80.5h-64q-1 -17 -9 -29t-23 -12q-18 0 -32 11.5t-32 23t-48 11.5q-37 0 -61 -27.5t-25 -81.5h63q5 42 33 42q19 0 33 -11.5t32.5 -23t49.5 -11.5z" />
    <glyph glyph-name="Ograve" unicode="&#xd2;" horiz-adv-x="878" 
d="M439 -12q80 0 148.5 28.5t120.5 80.5t81 122t29 154q0 83 -29 153.5t-81 122t-120.5 80t-148.5 28.5q-79 0 -148 -28.5t-120.5 -80t-80.5 -121.5t-29 -154t29 -154t81 -122t120.5 -80.5t147.5 -28.5zM439 79q-81 0 -144.5 39.5t-99.5 106t-36 148.5t36 148t99 105.5
t145 39.5t145 -39.5t99 -105.5t36 -148t-36 -148.5t-99 -106t-145 -39.5zM399 847h80l-73 144h-99z" />
    <glyph glyph-name="Oacute" unicode="&#xd3;" horiz-adv-x="878" 
d="M439 -12q80 0 148.5 28.5t120.5 80.5t81 122t29 154q0 83 -29 153.5t-81 122t-120.5 80t-148.5 28.5q-79 0 -148 -28.5t-120.5 -80t-80.5 -121.5t-29 -154t29 -154t81 -122t120.5 -80.5t147.5 -28.5zM439 79q-81 0 -144.5 39.5t-99.5 106t-36 148.5t36 148t99 105.5
t145 39.5t145 -39.5t99 -105.5t36 -148t-36 -148.5t-99 -106t-145 -39.5zM399 847h80l92 144h-99z" />
    <glyph glyph-name="Ocircumflex" unicode="&#xd4;" horiz-adv-x="878" 
d="M439 -12q80 0 148.5 28.5t120.5 80.5t81 122t29 154q0 83 -29 153.5t-81 122t-120.5 80t-148.5 28.5q-79 0 -148 -28.5t-120.5 -80t-80.5 -121.5t-29 -154t29 -154t81 -122t120.5 -80.5t147.5 -28.5zM439 79q-81 0 -144.5 39.5t-99.5 106t-36 148.5t36 148t99 105.5
t145 39.5t145 -39.5t99 -105.5t36 -148t-36 -148.5t-99 -106t-145 -39.5zM277 847h86l76 94l78 -94h85l-116 144h-95z" />
    <glyph glyph-name="Otilde" unicode="&#xd5;" horiz-adv-x="878" 
d="M439 -12q80 0 148.5 28.5t120.5 80.5t81 122t29 154q0 83 -29 153.5t-81 122t-120.5 80t-148.5 28.5q-79 0 -148 -28.5t-120.5 -80t-80.5 -121.5t-29 -154t29 -154t81 -122t120.5 -80.5t147.5 -28.5zM439 79q-81 0 -144.5 39.5t-99.5 106t-36 148.5t36 148t99 105.5
t145 39.5t145 -39.5t99 -105.5t36 -148t-36 -148.5t-99 -106t-145 -39.5zM504 878q38 0 60 27.5t23 80.5h-64q-1 -17 -9 -29t-23 -12q-18 0 -32 11.5t-32 23t-48 11.5q-37 0 -61 -27.5t-25 -81.5h63q5 42 33 42q19 0 33 -11.5t32.5 -23t49.5 -11.5z" />
    <glyph glyph-name="Odieresis" unicode="&#xd6;" horiz-adv-x="878" 
d="M439 -12q80 0 148.5 28.5t120.5 80.5t81 122t29 154q0 83 -29 153.5t-81 122t-120.5 80t-148.5 28.5q-79 0 -148 -28.5t-120.5 -80t-80.5 -121.5t-29 -154t29 -154t81 -122t120.5 -80.5t147.5 -28.5zM439 79q-81 0 -144.5 39.5t-99.5 106t-36 148.5t36 148t99 105.5
t145 39.5t145 -39.5t99 -105.5t36 -148t-36 -148.5t-99 -106t-145 -39.5zM353 862q26 0 44 18t18 45q0 26 -18 44t-44 18q-27 0 -45 -18t-18 -44t18 -44.5t45 -18.5zM528 862q26 0 44 18t18 45q0 26 -18 44t-44 18q-27 0 -45 -18t-18 -44t18 -44.5t45 -18.5z" />
    <glyph glyph-name="multiply" unicode="&#xd7;" horiz-adv-x="574" 
d="M127 0l160 161l161 -161l61 62l-160 161l160 159l-62 62l-160 -160l-159 160l-62 -62l159 -159l-160 -161z" />
    <glyph glyph-name="Oslash" unicode="&#xd8;" horiz-adv-x="878" 
d="M76 0h108l42 51q46 -30 100 -46.5t113 -16.5q80 0 148.5 28.5t120.5 80.5t81 122t29 154q0 80 -27.5 148.5t-75.5 119.5l87 104h-108l-42 -51q-45 30 -99 46.5t-114 16.5q-79 0 -148 -28.5t-120.5 -80t-80.5 -121.5t-29 -154q0 -80 27 -148.5t75 -119.5zM159 373
q0 82 36 148t99 105.5t145 39.5q43 0 82 -11.5t71 -32.5l-367 -443q-31 39 -48.5 88.5t-17.5 105.5zM439 79q-43 0 -81.5 11.5t-71.5 33.5l367 442q32 -39 49 -88t17 -105q0 -82 -36 -148.5t-99 -106t-145 -39.5z" />
    <glyph glyph-name="Ugrave" unicode="&#xd9;" horiz-adv-x="706" 
d="M353 -12q82 0 143.5 34t96.5 93.5t35 135.5v494h-99v-492q0 -51 -22.5 -90.5t-62 -61.5t-91.5 -22t-91.5 22t-62 61.5t-22.5 90.5v492h-99v-494q0 -76 35 -135.5t97 -93.5t143 -34zM313 847h80l-73 144h-99z" />
    <glyph glyph-name="Uacute" unicode="&#xda;" horiz-adv-x="706" 
d="M353 -12q82 0 143.5 34t96.5 93.5t35 135.5v494h-99v-492q0 -51 -22.5 -90.5t-62 -61.5t-91.5 -22t-91.5 22t-62 61.5t-22.5 90.5v492h-99v-494q0 -76 35 -135.5t97 -93.5t143 -34zM313 847h80l92 144h-99z" />
    <glyph glyph-name="Ucircumflex" unicode="&#xdb;" horiz-adv-x="706" 
d="M353 -12q82 0 143.5 34t96.5 93.5t35 135.5v494h-99v-492q0 -51 -22.5 -90.5t-62 -61.5t-91.5 -22t-91.5 22t-62 61.5t-22.5 90.5v492h-99v-494q0 -76 35 -135.5t97 -93.5t143 -34zM191 847h86l76 94l78 -94h85l-116 144h-95z" />
    <glyph glyph-name="Udieresis" unicode="&#xdc;" horiz-adv-x="706" 
d="M353 -12q82 0 143.5 34t96.5 93.5t35 135.5v494h-99v-492q0 -51 -22.5 -90.5t-62 -61.5t-91.5 -22t-91.5 22t-62 61.5t-22.5 90.5v492h-99v-494q0 -76 35 -135.5t97 -93.5t143 -34zM267 862q26 0 44 18t18 45q0 26 -18 44t-44 18q-27 0 -45 -18t-18 -44t18 -44.5
t45 -18.5zM442 862q26 0 44 18t18 45q0 26 -18 44t-44 18q-27 0 -45 -18t-18 -44t18 -44.5t45 -18.5z" />
    <glyph glyph-name="Yacute" unicode="&#xdd;" horiz-adv-x="635" 
d="M269 0h99v341l256 404h-111l-195 -308l-196 308h-111l258 -404v-341zM278 847h80l92 144h-99z" />
    <glyph glyph-name="Thorn" unicode="&#xde;" horiz-adv-x="640" 
d="M75 0h99v143h165q74 0 130 28t87.5 79.5t31.5 121.5q0 71 -31.5 122.5t-87.5 80t-130 28.5h-165v142h-99v-745zM174 233v280h168q66 0 106.5 -37.5t40.5 -102.5t-40.5 -102.5t-106.5 -37.5h-168z" />
    <glyph glyph-name="germandbls" unicode="&#xdf;" horiz-adv-x="616" 
d="M83 -152h93v680q0 67 38.5 105.5t99.5 38.5q56 0 89.5 -32t33.5 -84q0 -51 -34 -84.5t-87 -33.5h-52v-85h59q65 0 105 -36.5t40 -97.5q0 -60 -40 -97t-105 -37h-59v-85h62q73 0 127 27t83.5 76.5t29.5 115.5q0 126 -115 180q40 23 62.5 65.5t22.5 94.5q0 60 -28 104.5
t-78 69t-116 24.5t-118.5 -27.5t-82.5 -79t-30 -122.5v-680z" />
    <glyph glyph-name="agrave" unicode="&#xe0;" horiz-adv-x="575" 
d="M230 -12q59 0 106 22.5t76 59.5v-70h91v366q0 55 -26.5 96.5t-73.5 65t-109 23.5q-48 0 -92 -17t-77 -46.5t-48 -66.5l81 -42q17 38 52 62t82 24q53 0 85.5 -27.5t32.5 -71.5v-25l-184 -30q-91 -15 -133.5 -60.5t-42.5 -109.5q0 -68 50.5 -110.5t129.5 -42.5zM148 144
q0 35 23.5 59t75.5 33l163 27v-34q0 -45 -21 -82t-59 -58.5t-89 -21.5q-40 0 -66.5 22t-26.5 55zM247 640h80l-73 144h-99z" />
    <glyph glyph-name="aacute" unicode="&#xe1;" horiz-adv-x="575" 
d="M230 -12q59 0 106 22.5t76 59.5v-70h91v366q0 55 -26.5 96.5t-73.5 65t-109 23.5q-48 0 -92 -17t-77 -46.5t-48 -66.5l81 -42q17 38 52 62t82 24q53 0 85.5 -27.5t32.5 -71.5v-25l-184 -30q-91 -15 -133.5 -60.5t-42.5 -109.5q0 -68 50.5 -110.5t129.5 -42.5zM148 144
q0 35 23.5 59t75.5 33l163 27v-34q0 -45 -21 -82t-59 -58.5t-89 -21.5q-40 0 -66.5 22t-26.5 55zM248 640h80l92 144h-99z" />
    <glyph glyph-name="acircumflex" unicode="&#xe2;" horiz-adv-x="575" 
d="M230 -12q59 0 106 22.5t76 59.5v-70h91v366q0 55 -26.5 96.5t-73.5 65t-109 23.5q-48 0 -92 -17t-77 -46.5t-48 -66.5l81 -42q17 38 52 62t82 24q53 0 85.5 -27.5t32.5 -71.5v-25l-184 -30q-91 -15 -133.5 -60.5t-42.5 -109.5q0 -68 50.5 -110.5t129.5 -42.5zM148 144
q0 35 23.5 59t75.5 33l163 27v-34q0 -45 -21 -82t-59 -58.5t-89 -21.5q-40 0 -66.5 22t-26.5 55zM125 640h86l76 94l78 -94h85l-116 144h-95z" />
    <glyph glyph-name="atilde" unicode="&#xe3;" horiz-adv-x="575" 
d="M230 -12q59 0 106 22.5t76 59.5v-70h91v366q0 55 -26.5 96.5t-73.5 65t-109 23.5q-48 0 -92 -17t-77 -46.5t-48 -66.5l81 -42q17 38 52 62t82 24q53 0 85.5 -27.5t32.5 -71.5v-25l-184 -30q-91 -15 -133.5 -60.5t-42.5 -109.5q0 -68 50.5 -110.5t129.5 -42.5zM148 144
q0 35 23.5 59t75.5 33l163 27v-34q0 -45 -21 -82t-59 -58.5t-89 -21.5q-40 0 -66.5 22t-26.5 55zM352 671q38 0 60 27.5t23 80.5h-64q-1 -17 -9 -29t-23 -12q-18 0 -32 11.5t-32 23t-48 11.5q-37 0 -61 -27.5t-25 -81.5h63q5 42 33 42q19 0 33 -11.5t32.5 -23t49.5 -11.5z
" />
    <glyph glyph-name="adieresis" unicode="&#xe4;" horiz-adv-x="575" 
d="M230 -12q59 0 106 22.5t76 59.5v-70h91v366q0 55 -26.5 96.5t-73.5 65t-109 23.5q-48 0 -92 -17t-77 -46.5t-48 -66.5l81 -42q17 38 52 62t82 24q53 0 85.5 -27.5t32.5 -71.5v-25l-184 -30q-91 -15 -133.5 -60.5t-42.5 -109.5q0 -68 50.5 -110.5t129.5 -42.5zM148 144
q0 35 23.5 59t75.5 33l163 27v-34q0 -45 -21 -82t-59 -58.5t-89 -21.5q-40 0 -66.5 22t-26.5 55zM201 655q26 0 44 18t18 45q0 26 -18 44t-44 18q-27 0 -45 -18t-18 -44t18 -44.5t45 -18.5zM376 655q26 0 44 18t18 45q0 26 -18 44t-44 18q-27 0 -45 -18t-18 -44t18 -44.5
t45 -18.5z" />
    <glyph glyph-name="aring" unicode="&#xe5;" horiz-adv-x="575" 
d="M230 -12q59 0 106 22.5t76 59.5v-70h91v366q0 55 -26.5 96.5t-73.5 65t-109 23.5q-48 0 -92 -17t-77 -46.5t-48 -66.5l81 -42q17 38 52 62t82 24q53 0 85.5 -27.5t32.5 -71.5v-25l-184 -30q-91 -15 -133.5 -60.5t-42.5 -109.5q0 -68 50.5 -110.5t129.5 -42.5zM148 144
q0 35 23.5 59t75.5 33l163 27v-34q0 -45 -21 -82t-59 -58.5t-89 -21.5q-40 0 -66.5 22t-26.5 55zM288 588q52 0 87 35t35 86q0 52 -35 87t-87 35t-87.5 -35t-35.5 -87q0 -51 35.5 -86t87.5 -35zM287 647q-26 0 -44 17.5t-18 44.5q0 28 18 45.5t44 17.5t44 -17.5t18 -45.5
q0 -27 -18 -44.5t-44 -17.5z" />
    <glyph glyph-name="ae" unicode="&#xe6;" horiz-adv-x="978" 
d="M230 -12q59 0 106.5 22t75.5 60v-70h87v69q73 -81 190 -81q53 0 97.5 18t78 48.5t49.5 67.5l-78 40q-23 -39 -60.5 -64t-91.5 -25q-45 0 -83.5 20.5t-62.5 58.5t-27 90h412q3 12 4 25.5t1 24.5q0 67 -30 126t-86.5 96t-136.5 37q-60 0 -111 -24.5t-86 -67.5
q-26 42 -74 67t-110 25q-48 0 -92 -17t-77 -46.5t-48 -66.5l81 -42q17 38 52 62t82 24q53 0 85.5 -27.5t32.5 -71.5v-25l-184 -30q-91 -15 -133.5 -60.5t-42.5 -109.5q0 -68 50.5 -110.5t129.5 -42.5zM514 322q8 68 54.5 107t106.5 39q42 0 76 -19t55 -51.5t22 -75.5h-314z
M241 67q-40 0 -66.5 22t-26.5 55q0 35 23.5 59t75.5 33l163 27v-34q0 -45 -21 -82t-59 -58.5t-89 -21.5z" />
    <glyph glyph-name="ccedilla" unicode="&#xe7;" horiz-adv-x="603" 
d="M322 -12q53 0 99.5 19t80.5 52t51 74l-83 42q-19 -44 -57.5 -70.5t-90.5 -26.5q-49 0 -88.5 25t-62.5 68.5t-23 97.5q0 56 23 99t62.5 68t88.5 25q51 0 90 -26.5t58 -68.5l83 40q-17 42 -51.5 75t-80.5 51.5t-99 18.5q-79 0 -140.5 -36.5t-96.5 -100t-35 -144.5
q0 -80 35 -144t96.5 -101t140.5 -37zM330 -230q58 0 88.5 27.5t30.5 66.5q0 35 -24 55.5t-59 20.5q-9 0 -19 -2l6 62h-63l-13 -107l21 -9q18 9 40 9q35 0 35 -32q0 -37 -49 -37q-12 0 -29 2.5t-31 7.5l-12 -50q16 -7 38 -10.5t40 -3.5z" />
    <glyph glyph-name="egrave" unicode="&#xe8;" horiz-adv-x="614" 
d="M320 -12q83 0 144 39t86 95l-78 40q-23 -39 -60 -64t-91 -25q-45 0 -83.5 20.5t-63 58.5t-26.5 90h412q5 27 5 50q0 67 -30 126t-86.5 96t-136.5 37q-75 0 -134 -36t-93.5 -99.5t-34.5 -144.5t35 -145t96 -101t139 -37zM312 468q41 0 75 -18.5t55 -51.5t22 -76h-314
q10 68 56 107t106 39zM267 640h80l-73 144h-99z" />
    <glyph glyph-name="eacute" unicode="&#xe9;" horiz-adv-x="614" 
d="M320 -12q83 0 144 39t86 95l-78 40q-23 -39 -60 -64t-91 -25q-45 0 -83.5 20.5t-63 58.5t-26.5 90h412q5 27 5 50q0 67 -30 126t-86.5 96t-136.5 37q-75 0 -134 -36t-93.5 -99.5t-34.5 -144.5t35 -145t96 -101t139 -37zM312 468q41 0 75 -18.5t55 -51.5t22 -76h-314
q10 68 56 107t106 39zM268 640h80l92 144h-99z" />
    <glyph glyph-name="ecircumflex" unicode="&#xea;" horiz-adv-x="614" 
d="M320 -12q83 0 144 39t86 95l-78 40q-23 -39 -60 -64t-91 -25q-45 0 -83.5 20.5t-63 58.5t-26.5 90h412q5 27 5 50q0 67 -30 126t-86.5 96t-136.5 37q-75 0 -134 -36t-93.5 -99.5t-34.5 -144.5t35 -145t96 -101t139 -37zM312 468q41 0 75 -18.5t55 -51.5t22 -76h-314
q10 68 56 107t106 39zM145 640h86l76 94l78 -94h85l-116 144h-95z" />
    <glyph glyph-name="edieresis" unicode="&#xeb;" horiz-adv-x="614" 
d="M320 -12q83 0 144 39t86 95l-78 40q-23 -39 -60 -64t-91 -25q-45 0 -83.5 20.5t-63 58.5t-26.5 90h412q5 27 5 50q0 67 -30 126t-86.5 96t-136.5 37q-75 0 -134 -36t-93.5 -99.5t-34.5 -144.5t35 -145t96 -101t139 -37zM312 468q41 0 75 -18.5t55 -51.5t22 -76h-314
q10 68 56 107t106 39zM221 655q26 0 44 18t18 45q0 26 -18 44t-44 18q-27 0 -45 -18t-18 -44t18 -44.5t45 -18.5zM396 655q26 0 44 18t18 45q0 26 -18 44t-44 18q-27 0 -45 -18t-18 -44t18 -44.5t45 -18.5z" />
    <glyph glyph-name="igrave" unicode="&#xec;" horiz-adv-x="209" 
d="M58 0h93v539h-93v-539zM64 640h80l-73 144h-99z" />
    <glyph glyph-name="iacute" unicode="&#xed;" horiz-adv-x="209" 
d="M58 0h93v539h-93v-539zM64 640h80l92 144h-99z" />
    <glyph glyph-name="icircumflex" unicode="&#xee;" horiz-adv-x="209" 
d="M58 0h93v539h-93v-539zM-58 640h86l76 94l78 -94h85l-116 144h-95z" />
    <glyph glyph-name="idieresis" unicode="&#xef;" horiz-adv-x="209" 
d="M58 0h93v539h-93v-539zM18 655q26 0 44 18t18 45q0 26 -18 44t-44 18q-27 0 -45 -18t-18 -44t18 -44.5t45 -18.5zM193 655q26 0 44 18t18 45q0 26 -18 44t-44 18q-27 0 -45 -18t-18 -44t18 -44.5t45 -18.5z" />
    <glyph glyph-name="eth" unicode="&#xf0;" horiz-adv-x="654" 
d="M332 -12q75 0 137 35t99 108t37 188q0 99 -31 192t-91 160l64 24v60l-109 -40q-46 37 -104.5 58.5t-128.5 21.5q-66 0 -139 -24l16 -80q56 19 114 19q74 0 140 -34l-101 -37v-59l157 58q35 -29 59.5 -68.5t35.5 -86.5q-34 32 -77.5 45t-85.5 13q-78 0 -140 -36t-98 -98
t-36 -141q0 -80 37 -143t101 -99t144 -36zM328 78q-49 0 -90 24.5t-65.5 67t-24.5 95.5t23 95t64 66.5t93 24.5q53 0 93 -25t62.5 -66.5t22.5 -92.5q0 -53 -23.5 -96t-64 -68t-90.5 -25z" />
    <glyph glyph-name="ntilde" unicode="&#xf1;" 
d="M72 0h93v319q0 66 37 104t94 38t93 -37.5t36 -104.5v-319h94v349q0 58 -26.5 103.5t-72 72t-103.5 26.5q-50 0 -90 -20.5t-64 -57.5v66h-91v-539zM355 671q38 0 60 27.5t23 80.5h-64q-1 -17 -9 -29t-23 -12q-18 0 -32 11.5t-32 23t-48 11.5q-37 0 -61 -27.5t-25 -81.5h63
q5 42 33 42q19 0 33 -11.5t32.5 -23t49.5 -11.5z" />
    <glyph glyph-name="ograve" unicode="&#xf2;" horiz-adv-x="654" 
d="M328 -12q76 0 139 36t100.5 100t37.5 146q0 81 -36.5 144.5t-99.5 100t-141 36.5q-79 0 -142 -36.5t-99.5 -100t-36.5 -144.5t37 -145t100 -100.5t141 -36.5zM328 78q-51 0 -91.5 25t-64.5 68.5t-24 98.5t24 98t64.5 68t91.5 25q50 0 90.5 -25t64 -68t23.5 -98
t-23.5 -98.5t-64 -68.5t-90.5 -25zM287 640h80l-73 144h-99z" />
    <glyph glyph-name="oacute" unicode="&#xf3;" horiz-adv-x="654" 
d="M328 -12q76 0 139 36t100.5 100t37.5 146q0 81 -36.5 144.5t-99.5 100t-141 36.5q-79 0 -142 -36.5t-99.5 -100t-36.5 -144.5t37 -145t100 -100.5t141 -36.5zM328 78q-51 0 -91.5 25t-64.5 68.5t-24 98.5t24 98t64.5 68t91.5 25q50 0 90.5 -25t64 -68t23.5 -98
t-23.5 -98.5t-64 -68.5t-90.5 -25zM288 640h80l92 144h-99z" />
    <glyph glyph-name="ocircumflex" unicode="&#xf4;" horiz-adv-x="654" 
d="M328 -12q76 0 139 36t100.5 100t37.5 146q0 81 -36.5 144.5t-99.5 100t-141 36.5q-79 0 -142 -36.5t-99.5 -100t-36.5 -144.5t37 -145t100 -100.5t141 -36.5zM328 78q-51 0 -91.5 25t-64.5 68.5t-24 98.5t24 98t64.5 68t91.5 25q50 0 90.5 -25t64 -68t23.5 -98
t-23.5 -98.5t-64 -68.5t-90.5 -25zM165 640h86l76 94l78 -94h85l-116 144h-95z" />
    <glyph glyph-name="otilde" unicode="&#xf5;" horiz-adv-x="654" 
d="M328 -12q76 0 139 36t100.5 100t37.5 146q0 81 -36.5 144.5t-99.5 100t-141 36.5q-79 0 -142 -36.5t-99.5 -100t-36.5 -144.5t37 -145t100 -100.5t141 -36.5zM328 78q-51 0 -91.5 25t-64.5 68.5t-24 98.5t24 98t64.5 68t91.5 25q50 0 90.5 -25t64 -68t23.5 -98
t-23.5 -98.5t-64 -68.5t-90.5 -25zM392 671q38 0 60 27.5t23 80.5h-64q-1 -17 -9 -29t-23 -12q-18 0 -32 11.5t-32 23t-48 11.5q-37 0 -61 -27.5t-25 -81.5h63q5 42 33 42q19 0 33 -11.5t32.5 -23t49.5 -11.5z" />
    <glyph glyph-name="odieresis" unicode="&#xf6;" horiz-adv-x="654" 
d="M328 -12q76 0 139 36t100.5 100t37.5 146q0 81 -36.5 144.5t-99.5 100t-141 36.5q-79 0 -142 -36.5t-99.5 -100t-36.5 -144.5t37 -145t100 -100.5t141 -36.5zM328 78q-51 0 -91.5 25t-64.5 68.5t-24 98.5t24 98t64.5 68t91.5 25q50 0 90.5 -25t64 -68t23.5 -98
t-23.5 -98.5t-64 -68.5t-90.5 -25zM241 655q26 0 44 18t18 45q0 26 -18 44t-44 18q-27 0 -45 -18t-18 -44t18 -44.5t45 -18.5zM416 655q26 0 44 18t18 45q0 26 -18 44t-44 18q-27 0 -45 -18t-18 -44t18 -44.5t45 -18.5z" />
    <glyph glyph-name="divide" unicode="&#xf7;" horiz-adv-x="630" 
d="M265 393h97v107h-97v-107zM64 207h500v87h-500v-87zM265 0h97v107h-97v-107z" />
    <glyph glyph-name="oslash" unicode="&#xf8;" horiz-adv-x="654" 
d="M54 0h101l24 29q33 -19 70.5 -30t78.5 -11q76 0 139 36t100.5 100t37.5 146q0 56 -18.5 104.5t-50.5 85.5l65 79h-101l-24 -29q-32 20 -69.5 30.5t-78.5 10.5q-79 0 -142 -36.5t-99.5 -100t-36.5 -144.5q0 -57 18.5 -105.5t51.5 -84.5zM148 270q0 55 24 98t64.5 68
t91.5 25q48 0 88 -24l-234 -282q-16 23 -25 52.5t-9 62.5zM328 78q-48 0 -89 24l234 282q15 -24 24 -52.5t9 -61.5q0 -55 -23.5 -98.5t-64 -68.5t-90.5 -25z" />
    <glyph glyph-name="ugrave" unicode="&#xf9;" 
d="M263 -12q50 0 90 20.5t64 57.5v-66h91v539h-94v-319q0 -66 -36.5 -104t-93.5 -38q-58 0 -94 36.5t-36 97.5v327h-93v-337q0 -63 26 -111.5t71.5 -75.5t104.5 -27zM250 640h80l-73 144h-99z" />
    <glyph glyph-name="uacute" unicode="&#xfa;" 
d="M263 -12q50 0 90 20.5t64 57.5v-66h91v539h-94v-319q0 -66 -36.5 -104t-93.5 -38q-58 0 -94 36.5t-36 97.5v327h-93v-337q0 -63 26 -111.5t71.5 -75.5t104.5 -27zM250 640h80l92 144h-99z" />
    <glyph glyph-name="ucircumflex" unicode="&#xfb;" 
d="M263 -12q50 0 90 20.5t64 57.5v-66h91v539h-94v-319q0 -66 -36.5 -104t-93.5 -38q-58 0 -94 36.5t-36 97.5v327h-93v-337q0 -63 26 -111.5t71.5 -75.5t104.5 -27zM128 640h86l76 94l78 -94h85l-116 144h-95z" />
    <glyph glyph-name="udieresis" unicode="&#xfc;" 
d="M263 -12q50 0 90 20.5t64 57.5v-66h91v539h-94v-319q0 -66 -36.5 -104t-93.5 -38q-58 0 -94 36.5t-36 97.5v327h-93v-337q0 -63 26 -111.5t71.5 -75.5t104.5 -27zM204 655q26 0 44 18t18 45q0 26 -18 44t-44 18q-27 0 -45 -18t-18 -44t18 -44.5t45 -18.5zM379 655
q26 0 44 18t18 45q0 26 -18 44t-44 18q-27 0 -45 -18t-18 -44t18 -44.5t45 -18.5z" />
    <glyph glyph-name="yacute" unicode="&#xfd;" horiz-adv-x="553" 
d="M101 -220q53 0 90.5 21t64 56.5t43.5 78.5l243 603h-103l-163 -421l-164 421h-101l214 -540l-16 -39q-22 -50 -46.5 -71t-71.5 -21q-16 0 -32.5 2.5t-27.5 4.5v-83q16 -7 34 -9.5t36 -2.5zM236 640h80l92 144h-99z" />
    <glyph glyph-name="thorn" unicode="&#xfe;" horiz-adv-x="669" 
d="M72 -200h93v275q31 -42 79.5 -64.5t106.5 -22.5q77 0 137.5 37t95.5 100.5t35 143.5q0 81 -35 144.5t-95 100.5t-137 37q-61 0 -109.5 -23.5t-79.5 -64.5v282h-91v-945zM344 78q-50 0 -91 25t-64.5 68.5t-23.5 97.5q0 55 23.5 98t64.5 68.5t91 25.5q51 0 90.5 -25
t62.5 -68.5t23 -98.5q0 -54 -23 -97.5t-62.5 -68.5t-90.5 -25z" />
    <glyph glyph-name="ydieresis" unicode="&#xff;" horiz-adv-x="553" 
d="M101 -220q53 0 90.5 21t64 56.5t43.5 78.5l243 603h-103l-163 -421l-164 421h-101l214 -540l-16 -39q-22 -50 -46.5 -71t-71.5 -21q-16 0 -32.5 2.5t-27.5 4.5v-83q16 -7 34 -9.5t36 -2.5zM190 655q26 0 44 18t18 45q0 26 -18 44t-44 18q-27 0 -45 -18t-18 -44t18 -44.5
t45 -18.5zM365 655q26 0 44 18t18 45q0 26 -18 44t-44 18q-27 0 -45 -18t-18 -44t18 -44.5t45 -18.5z" />
    <glyph glyph-name="Amacron" unicode="&#x100;" horiz-adv-x="672" 
d="M11 0h105l61 175h318l61 -175h105l-267 745h-116zM208 265l128 369l128 -369h-256zM203 873h267v73h-267v-73z" />
    <glyph glyph-name="amacron" unicode="&#x101;" horiz-adv-x="575" 
d="M230 -12q59 0 106 22.5t76 59.5v-70h91v366q0 55 -26.5 96.5t-73.5 65t-109 23.5q-48 0 -92 -17t-77 -46.5t-48 -66.5l81 -42q17 38 52 62t82 24q53 0 85.5 -27.5t32.5 -71.5v-25l-184 -30q-91 -15 -133.5 -60.5t-42.5 -109.5q0 -68 50.5 -110.5t129.5 -42.5zM148 144
q0 35 23.5 59t75.5 33l163 27v-34q0 -45 -21 -82t-59 -58.5t-89 -21.5q-40 0 -66.5 22t-26.5 55zM155 666h267v73h-267v-73z" />
    <glyph glyph-name="Abreve" unicode="&#x102;" horiz-adv-x="672" 
d="M11 0h105l61 175h318l61 -175h105l-267 745h-116zM208 265l128 369l128 -369h-256zM336 847q40 0 73 19t52.5 50.5t19.5 69.5h-70q0 -30 -22 -52t-53 -22t-52.5 22t-21.5 52h-71q0 -37 19.5 -69t52.5 -51t73 -19z" />
    <glyph glyph-name="abreve" unicode="&#x103;" horiz-adv-x="575" 
d="M230 -12q59 0 106 22.5t76 59.5v-70h91v366q0 55 -26.5 96.5t-73.5 65t-109 23.5q-48 0 -92 -17t-77 -46.5t-48 -66.5l81 -42q17 38 52 62t82 24q53 0 85.5 -27.5t32.5 -71.5v-25l-184 -30q-91 -15 -133.5 -60.5t-42.5 -109.5q0 -68 50.5 -110.5t129.5 -42.5zM148 144
q0 35 23.5 59t75.5 33l163 27v-34q0 -45 -21 -82t-59 -58.5t-89 -21.5q-40 0 -66.5 22t-26.5 55zM287 640q40 0 73 19t52.5 50.5t19.5 69.5h-70q0 -30 -22 -52t-53 -22t-52.5 22t-21.5 52h-71q0 -37 19.5 -69t52.5 -51t73 -19z" />
    <glyph glyph-name="Aogonek" unicode="&#x104;" horiz-adv-x="672" 
d="M11 0h105l61 175h318l61 -175h105l-267 745h-116zM208 265l128 369l128 -369h-256zM585 -181q29 0 57.5 10t55.5 32l-30 48q-18 -12 -37 -20t-39 -8q-25 0 -39.5 12.5t-14.5 34.5q0 25 21 47t67 39v21h-34q-56 -15 -88.5 -47.5t-32.5 -75.5t32.5 -68t81.5 -25z" />
    <glyph glyph-name="aogonek" unicode="&#x105;" horiz-adv-x="575" 
d="M230 -12q59 0 106 22.5t76 59.5v-70h91v366q0 55 -26.5 96.5t-73.5 65t-109 23.5q-48 0 -92 -17t-77 -46.5t-48 -66.5l81 -42q17 38 52 62t82 24q53 0 85.5 -27.5t32.5 -71.5v-25l-184 -30q-91 -15 -133.5 -60.5t-42.5 -109.5q0 -68 50.5 -110.5t129.5 -42.5zM148 144
q0 35 23.5 59t75.5 33l163 27v-34q0 -45 -21 -82t-59 -58.5t-89 -21.5q-40 0 -66.5 22t-26.5 55zM459 -175q29 0 57.5 10t55.5 32l-30 48q-18 -12 -37 -20t-39 -8q-25 0 -39.5 12.5t-14.5 34.5q0 25 21 47t67 39v21h-34q-56 -15 -88.5 -47.5t-32.5 -75.5t32.5 -68t81.5 -25z
" />
    <glyph glyph-name="Cacute" unicode="&#x106;" horiz-adv-x="779" 
d="M426 -12q77 0 138.5 27t104 70t60.5 92l-90 41q-26 -62 -81 -100.5t-132 -38.5q-78 0 -138.5 37t-94.5 103t-34 153q0 88 34 154t94.5 103t138.5 37q77 0 132 -38.5t81 -100.5l90 41q-18 49 -60.5 92t-104 70t-138.5 27q-79 0 -145.5 -28.5t-116 -80.5t-76.5 -122
t-27 -154q0 -83 27 -153.5t76.5 -122t116 -80t145.5 -28.5zM350 847h80l92 144h-99z" />
    <glyph glyph-name="cacute" unicode="&#x107;" horiz-adv-x="603" 
d="M322 -12q53 0 99.5 19t80.5 52t51 74l-83 42q-19 -44 -57.5 -70.5t-90.5 -26.5q-49 0 -88.5 25t-62.5 68.5t-23 97.5q0 56 23 99t62.5 68t88.5 25q51 0 90 -26.5t58 -68.5l83 40q-17 42 -51.5 75t-80.5 51.5t-99 18.5q-79 0 -140.5 -36.5t-96.5 -100t-35 -144.5
q0 -80 35 -144t96.5 -101t140.5 -37zM282 640h80l92 144h-99z" />
    <glyph glyph-name="Ccircumflex" unicode="&#x108;" horiz-adv-x="779" 
d="M426 -12q77 0 138.5 27t104 70t60.5 92l-90 41q-26 -62 -81 -100.5t-132 -38.5q-78 0 -138.5 37t-94.5 103t-34 153q0 88 34 154t94.5 103t138.5 37q77 0 132 -38.5t81 -100.5l90 41q-18 49 -60.5 92t-104 70t-138.5 27q-79 0 -145.5 -28.5t-116 -80.5t-76.5 -122
t-27 -154q0 -83 27 -153.5t76.5 -122t116 -80t145.5 -28.5zM227 847h86l76 94l78 -94h85l-116 144h-95z" />
    <glyph glyph-name="ccircumflex" unicode="&#x109;" horiz-adv-x="603" 
d="M322 -12q53 0 99.5 19t80.5 52t51 74l-83 42q-19 -44 -57.5 -70.5t-90.5 -26.5q-49 0 -88.5 25t-62.5 68.5t-23 97.5q0 56 23 99t62.5 68t88.5 25q51 0 90 -26.5t58 -68.5l83 40q-17 42 -51.5 75t-80.5 51.5t-99 18.5q-79 0 -140.5 -36.5t-96.5 -100t-35 -144.5
q0 -80 35 -144t96.5 -101t140.5 -37zM160 640h86l76 94l78 -94h85l-116 144h-95z" />
    <glyph glyph-name="Cdotaccent" unicode="&#x10a;" horiz-adv-x="779" 
d="M426 -12q77 0 138.5 27t104 70t60.5 92l-90 41q-26 -62 -81 -100.5t-132 -38.5q-78 0 -138.5 37t-94.5 103t-34 153q0 88 34 154t94.5 103t138.5 37q77 0 132 -38.5t81 -100.5l90 41q-18 49 -60.5 92t-104 70t-138.5 27q-79 0 -145.5 -28.5t-116 -80.5t-76.5 -122
t-27 -154q0 -83 27 -153.5t76.5 -122t116 -80t145.5 -28.5zM390 862q26 0 44 18t18 45q0 26 -18 44t-44 18q-27 0 -45 -18t-18 -44t18 -44.5t45 -18.5z" />
    <glyph glyph-name="cdotaccent" unicode="&#x10b;" horiz-adv-x="603" 
d="M322 -12q53 0 99.5 19t80.5 52t51 74l-83 42q-19 -44 -57.5 -70.5t-90.5 -26.5q-49 0 -88.5 25t-62.5 68.5t-23 97.5q0 56 23 99t62.5 68t88.5 25q51 0 90 -26.5t58 -68.5l83 40q-17 42 -51.5 75t-80.5 51.5t-99 18.5q-79 0 -140.5 -36.5t-96.5 -100t-35 -144.5
q0 -80 35 -144t96.5 -101t140.5 -37zM323 655q26 0 44 18t18 45q0 26 -18 44t-44 18q-27 0 -45 -18t-18 -44t18 -44.5t45 -18.5z" />
    <glyph glyph-name="Ccaron" unicode="&#x10c;" horiz-adv-x="779" 
d="M426 -12q77 0 138.5 27t104 70t60.5 92l-90 41q-26 -62 -81 -100.5t-132 -38.5q-78 0 -138.5 37t-94.5 103t-34 153q0 88 34 154t94.5 103t138.5 37q77 0 132 -38.5t81 -100.5l90 41q-18 49 -60.5 92t-104 70t-138.5 27q-79 0 -145.5 -28.5t-116 -80.5t-76.5 -122
t-27 -154q0 -83 27 -153.5t76.5 -122t116 -80t145.5 -28.5zM342 847h95l116 144h-85l-78 -94l-76 94h-86z" />
    <glyph glyph-name="ccaron" unicode="&#x10d;" horiz-adv-x="603" 
d="M322 -12q53 0 99.5 19t80.5 52t51 74l-83 42q-19 -44 -57.5 -70.5t-90.5 -26.5q-49 0 -88.5 25t-62.5 68.5t-23 97.5q0 56 23 99t62.5 68t88.5 25q51 0 90 -26.5t58 -68.5l83 40q-17 42 -51.5 75t-80.5 51.5t-99 18.5q-79 0 -140.5 -36.5t-96.5 -100t-35 -144.5
q0 -80 35 -144t96.5 -101t140.5 -37zM274 640h95l116 144h-85l-78 -94l-76 94h-86z" />
    <glyph glyph-name="Dcaron" unicode="&#x10e;" horiz-adv-x="741" 
d="M83 0h244q113 0 197 47t130 131t46 195q0 112 -46 195.5t-130 130t-197 46.5h-244v-745zM181 90v565h147q82 0 142.5 -34.5t94 -97.5t33.5 -150q0 -86 -33 -150t-93.5 -98.5t-143.5 -34.5h-147zM332 847h95l116 144h-85l-78 -94l-76 94h-86z" />
    <glyph glyph-name="dcaron" unicode="&#x10f;" horiz-adv-x="803" 
d="M317 -12q60 0 109.5 23.5t79.5 67.5v-79h91v745h-94v-278q-31 40 -79 62t-107 22q-76 0 -136.5 -37t-95.5 -100.5t-35 -144.5q0 -80 35 -143.5t95.5 -100.5t136.5 -37zM325 78q-51 0 -91 25t-63 68.5t-23 97.5q0 55 23 98.5t63.5 68.5t90.5 25q51 0 91 -25.5t63.5 -68.5
t23.5 -98q0 -54 -23.5 -97.5t-63.5 -68.5t-91 -25zM704 655h71l14 184h-100z" />
    <glyph glyph-name="Dcroat" unicode="&#x110;" horiz-adv-x="741" 
d="M83 0h244q113 0 197 47t130 131t46 195q0 112 -46 195.5t-130 130t-197 46.5h-244v-337h-88v-71h88v-337zM181 90v247h189v71h-189v247h147q82 0 142.5 -34.5t94 -97.5t33.5 -150q0 -86 -33 -150t-93.5 -98.5t-143.5 -34.5h-147z" />
    <glyph glyph-name="dcroat" unicode="&#x111;" horiz-adv-x="669" 
d="M317 -12q60 0 109.5 23.5t79.5 67.5v-79h91v604h92v71h-92v70h-94v-70h-89v-71h89v-137q-31 40 -79 62t-107 22q-76 0 -136.5 -37t-95.5 -100.5t-35 -144.5q0 -80 35 -143.5t95.5 -100.5t136.5 -37zM325 78q-51 0 -91 25t-63 68.5t-23 97.5q0 55 23 98.5t63.5 68.5
t90.5 25q51 0 91 -25.5t63.5 -68.5t23.5 -98q0 -54 -23.5 -97.5t-63.5 -68.5t-91 -25z" />
    <glyph glyph-name="Emacron" unicode="&#x112;" horiz-adv-x="606" 
d="M83 0h485v90h-387v239h367v90h-367v236h387v90h-485v-745zM192 873h267v73h-267v-73z" />
    <glyph glyph-name="emacron" unicode="&#x113;" horiz-adv-x="614" 
d="M320 -12q83 0 144 39t86 95l-78 40q-23 -39 -60 -64t-91 -25q-45 0 -83.5 20.5t-63 58.5t-26.5 90h412q5 27 5 50q0 67 -30 126t-86.5 96t-136.5 37q-75 0 -134 -36t-93.5 -99.5t-34.5 -144.5t35 -145t96 -101t139 -37zM312 468q41 0 75 -18.5t55 -51.5t22 -76h-314
q10 68 56 107t106 39zM175 666h267v73h-267v-73z" />
    <glyph glyph-name="Ebreve" unicode="&#x114;" horiz-adv-x="606" 
d="M83 0h485v90h-387v239h367v90h-367v236h387v90h-485v-745zM325 847q40 0 73 19t52.5 50.5t19.5 69.5h-70q0 -30 -22 -52t-53 -22t-52.5 22t-21.5 52h-71q0 -37 19.5 -69t52.5 -51t73 -19z" />
    <glyph glyph-name="ebreve" unicode="&#x115;" horiz-adv-x="614" 
d="M320 -12q83 0 144 39t86 95l-78 40q-23 -39 -60 -64t-91 -25q-45 0 -83.5 20.5t-63 58.5t-26.5 90h412q5 27 5 50q0 67 -30 126t-86.5 96t-136.5 37q-75 0 -134 -36t-93.5 -99.5t-34.5 -144.5t35 -145t96 -101t139 -37zM312 468q41 0 75 -18.5t55 -51.5t22 -76h-314
q10 68 56 107t106 39zM307 640q40 0 73 19t52.5 50.5t19.5 69.5h-70q0 -30 -22 -52t-53 -22t-52.5 22t-21.5 52h-71q0 -37 19.5 -69t52.5 -51t73 -19z" />
    <glyph glyph-name="Edotaccent" unicode="&#x116;" horiz-adv-x="606" 
d="M83 0h485v90h-387v239h367v90h-367v236h387v90h-485v-745zM326 862q26 0 44 18t18 45q0 26 -18 44t-44 18q-27 0 -45 -18t-18 -44t18 -44.5t45 -18.5z" />
    <glyph glyph-name="edotaccent" unicode="&#x117;" horiz-adv-x="614" 
d="M320 -12q83 0 144 39t86 95l-78 40q-23 -39 -60 -64t-91 -25q-45 0 -83.5 20.5t-63 58.5t-26.5 90h412q5 27 5 50q0 67 -30 126t-86.5 96t-136.5 37q-75 0 -134 -36t-93.5 -99.5t-34.5 -144.5t35 -145t96 -101t139 -37zM312 468q41 0 75 -18.5t55 -51.5t22 -76h-314
q10 68 56 107t106 39zM308 655q26 0 44 18t18 45q0 26 -18 44t-44 18q-27 0 -45 -18t-18 -44t18 -44.5t45 -18.5z" />
    <glyph glyph-name="Eogonek" unicode="&#x118;" horiz-adv-x="606" 
d="M83 0h485v90h-387v239h367v90h-367v236h387v90h-485v-745zM484 -181q29 0 57.5 10t55.5 32l-30 48q-18 -12 -37 -20t-39 -8q-25 0 -39.5 12.5t-14.5 34.5q0 25 21 47t67 39v21h-34q-56 -15 -88.5 -47.5t-32.5 -75.5t32.5 -68t81.5 -25z" />
    <glyph glyph-name="eogonek" unicode="&#x119;" horiz-adv-x="614" 
d="M320 -12q83 0 144 39t86 95l-78 40q-23 -39 -60 -64t-91 -25q-45 0 -83.5 20.5t-63 58.5t-26.5 90h412q5 27 5 50q0 67 -30 126t-86.5 96t-136.5 37q-75 0 -134 -36t-93.5 -99.5t-34.5 -144.5t35 -145t96 -101t139 -37zM312 468q41 0 75 -18.5t55 -51.5t22 -76h-314
q10 68 56 107t106 39zM296 -175q29 0 57.5 10t55.5 32l-30 48q-18 -12 -37 -20t-39 -8q-25 0 -39.5 12.5t-14.5 34.5q0 25 21 47t67 39v21h-34q-56 -15 -88.5 -47.5t-32.5 -75.5t32.5 -68t81.5 -25z" />
    <glyph glyph-name="Ecaron" unicode="&#x11a;" horiz-adv-x="606" 
d="M83 0h485v90h-387v239h367v90h-367v236h387v90h-485v-745zM277 847h95l116 144h-85l-78 -94l-76 94h-86z" />
    <glyph glyph-name="ecaron" unicode="&#x11b;" horiz-adv-x="614" 
d="M320 -12q83 0 144 39t86 95l-78 40q-23 -39 -60 -64t-91 -25q-45 0 -83.5 20.5t-63 58.5t-26.5 90h412q5 27 5 50q0 67 -30 126t-86.5 96t-136.5 37q-75 0 -134 -36t-93.5 -99.5t-34.5 -144.5t35 -145t96 -101t139 -37zM312 468q41 0 75 -18.5t55 -51.5t22 -76h-314
q10 68 56 107t106 39zM259 640h95l116 144h-85l-78 -94l-76 94h-86z" />
    <glyph glyph-name="Gcircumflex" unicode="&#x11c;" horiz-adv-x="817" 
d="M427 -12q69 0 131 24t109 69t74 107.5t27 140.5v66h-342v-85h243v-4q0 -67 -32.5 -118t-87 -80t-122.5 -29q-78 0 -138.5 37t-95 103t-34.5 153q0 88 34 154t94.5 103t138.5 37t134 -38t81 -103l88 43q-18 49 -60.5 92t-104 70t-138.5 27q-79 0 -145.5 -28.5t-116 -80.5
t-76.5 -122t-27 -154q0 -83 27.5 -153.5t76.5 -122t116 -80t146 -28.5zM246 847h86l76 94l78 -94h85l-116 144h-95z" />
    <glyph glyph-name="gcircumflex" unicode="&#x11d;" horiz-adv-x="659" 
d="M329 -220q75 0 133.5 31.5t91.5 86.5t33 125v516h-91v-75q-32 41 -79 64t-104 23q-76 0 -135.5 -35.5t-93.5 -96.5t-34 -137t34.5 -137t94 -96.5t135.5 -35.5q55 0 102 22t77 63v-75q0 -49 -22.5 -83.5t-59.5 -52t-83 -17.5q-60 0 -99.5 26.5t-53.5 64.5l-87 -40
q27 -63 91 -102t150 -39zM322 103q-50 0 -89.5 24t-62 64.5t-22.5 90.5t23 90.5t62.5 64.5t88.5 24q48 0 87 -24t61.5 -64.5t22.5 -90.5q0 -49 -22.5 -90t-61.5 -65t-87 -24zM167 640h86l76 94l78 -94h85l-116 144h-95z" />
    <glyph glyph-name="Gbreve" unicode="&#x11e;" horiz-adv-x="817" 
d="M427 -12q69 0 131 24t109 69t74 107.5t27 140.5v66h-342v-85h243v-4q0 -67 -32.5 -118t-87 -80t-122.5 -29q-78 0 -138.5 37t-95 103t-34.5 153q0 88 34 154t94.5 103t138.5 37t134 -38t81 -103l88 43q-18 49 -60.5 92t-104 70t-138.5 27q-79 0 -145.5 -28.5t-116 -80.5
t-76.5 -122t-27 -154q0 -83 27.5 -153.5t76.5 -122t116 -80t146 -28.5zM409 847q40 0 73 19t52.5 50.5t19.5 69.5h-70q0 -30 -22 -52t-53 -22t-52.5 22t-21.5 52h-71q0 -37 19.5 -69t52.5 -51t73 -19z" />
    <glyph glyph-name="gbreve" unicode="&#x11f;" horiz-adv-x="659" 
d="M329 -220q75 0 133.5 31.5t91.5 86.5t33 125v516h-91v-75q-32 41 -79 64t-104 23q-76 0 -135.5 -35.5t-93.5 -96.5t-34 -137t34.5 -137t94 -96.5t135.5 -35.5q55 0 102 22t77 63v-75q0 -49 -22.5 -83.5t-59.5 -52t-83 -17.5q-60 0 -99.5 26.5t-53.5 64.5l-87 -40
q27 -63 91 -102t150 -39zM322 103q-50 0 -89.5 24t-62 64.5t-22.5 90.5t23 90.5t62.5 64.5t88.5 24q48 0 87 -24t61.5 -64.5t22.5 -90.5q0 -49 -22.5 -90t-61.5 -65t-87 -24zM329 640q40 0 73 19t52.5 50.5t19.5 69.5h-70q0 -30 -22 -52t-53 -22t-52.5 22t-21.5 52h-71
q0 -37 19.5 -69t52.5 -51t73 -19z" />
    <glyph glyph-name="Gdotaccent" unicode="&#x120;" horiz-adv-x="817" 
d="M427 -12q69 0 131 24t109 69t74 107.5t27 140.5v66h-342v-85h243v-4q0 -67 -32.5 -118t-87 -80t-122.5 -29q-78 0 -138.5 37t-95 103t-34.5 153q0 88 34 154t94.5 103t138.5 37t134 -38t81 -103l88 43q-18 49 -60.5 92t-104 70t-138.5 27q-79 0 -145.5 -28.5t-116 -80.5
t-76.5 -122t-27 -154q0 -83 27.5 -153.5t76.5 -122t116 -80t146 -28.5zM409 862q26 0 44 18t18 45q0 26 -18 44t-44 18q-27 0 -45 -18t-18 -44t18 -44.5t45 -18.5z" />
    <glyph glyph-name="gdotaccent" unicode="&#x121;" horiz-adv-x="659" 
d="M329 -220q75 0 133.5 31.5t91.5 86.5t33 125v516h-91v-75q-32 41 -79 64t-104 23q-76 0 -135.5 -35.5t-93.5 -96.5t-34 -137t34.5 -137t94 -96.5t135.5 -35.5q55 0 102 22t77 63v-75q0 -49 -22.5 -83.5t-59.5 -52t-83 -17.5q-60 0 -99.5 26.5t-53.5 64.5l-87 -40
q27 -63 91 -102t150 -39zM322 103q-50 0 -89.5 24t-62 64.5t-22.5 90.5t23 90.5t62.5 64.5t88.5 24q48 0 87 -24t61.5 -64.5t22.5 -90.5q0 -49 -22.5 -90t-61.5 -65t-87 -24zM330 655q26 0 44 18t18 45q0 26 -18 44t-44 18q-27 0 -45 -18t-18 -44t18 -44.5t45 -18.5z" />
    <glyph glyph-name="uni0122" unicode="&#x122;" horiz-adv-x="817" 
d="M427 -12q69 0 131 24t109 69t74 107.5t27 140.5v66h-342v-85h243v-4q0 -67 -32.5 -118t-87 -80t-122.5 -29q-78 0 -138.5 37t-95 103t-34.5 153q0 88 34 154t94.5 103t138.5 37t134 -38t81 -103l88 43q-18 49 -60.5 92t-104 70t-138.5 27q-79 0 -145.5 -28.5t-116 -80.5
t-76.5 -122t-27 -154q0 -83 27.5 -153.5t76.5 -122t116 -80t146 -28.5zM351 -339q117 27 117 174v85h-97v-120h49q-6 -80 -69 -97v-42z" />
    <glyph glyph-name="uni0123" unicode="&#x123;" horiz-adv-x="659" 
d="M329 -220q75 0 133.5 31.5t91.5 86.5t33 125v516h-91v-75q-32 41 -79 64t-104 23q-76 0 -135.5 -35.5t-93.5 -96.5t-34 -137t34.5 -137t94 -96.5t135.5 -35.5q55 0 102 22t77 63v-75q0 -49 -22.5 -83.5t-59.5 -52t-83 -17.5q-60 0 -99.5 26.5t-53.5 64.5l-87 -40
q27 -63 91 -102t150 -39zM322 103q-50 0 -89.5 24t-62 64.5t-22.5 90.5t23 90.5t62.5 64.5t88.5 24q48 0 87 -24t61.5 -64.5t22.5 -90.5q0 -49 -22.5 -90t-61.5 -65t-87 -24zM281 627h97v120h-49q3 33 20.5 56.5t48.5 31.5v41q-58 -13 -87.5 -56t-29.5 -108v-85z" />
    <glyph glyph-name="Hcircumflex" unicode="&#x124;" horiz-adv-x="735" 
d="M83 0h98v323h373v-323h99v745h-99v-332h-373v332h-98v-745zM205 847h86l76 94l78 -94h85l-116 144h-95z" />
    <glyph glyph-name="hcircumflex" unicode="&#x125;" 
d="M72 0h93v319q0 66 37.5 104t93.5 38t92.5 -37.5t36.5 -104.5v-319h94v349q0 58 -26.5 103.5t-72 72t-103.5 26.5q-49 0 -88.5 -19.5t-63.5 -55.5v272h-93v-748zM-44 850h86l76 94l78 -94h85l-116 144h-95z" />
    <glyph glyph-name="Hbar" unicode="&#x126;" horiz-adv-x="735" 
d="M83 0h98v323h373v-323h99v560h75v71h-75v114h-99v-114h-373v114h-98v-114h-75v-71h75v-560zM181 413v147h373v-147h-373z" />
    <glyph glyph-name="hbar" unicode="&#x127;" 
d="M72 0h93v319q0 66 37.5 104t93.5 38t92.5 -37.5t36.5 -104.5v-319h94v349q0 58 -26.5 103.5t-72 72t-103.5 26.5q-49 0 -88.5 -19.5t-63.5 -55.5v128h92v71h-92v73h-93v-73h-90v-71h90v-604z" />
    <glyph glyph-name="Itilde" unicode="&#x128;" horiz-adv-x="264" 
d="M83 0h98v745h-98v-745zM197 878q38 0 60 27.5t23 80.5h-64q-1 -17 -9 -29t-23 -12q-18 0 -32 11.5t-32 23t-48 11.5q-37 0 -61 -27.5t-25 -81.5h63q5 42 33 42q19 0 33 -11.5t32.5 -23t49.5 -11.5z" />
    <glyph glyph-name="itilde" unicode="&#x129;" horiz-adv-x="209" 
d="M58 0h93v539h-93v-539zM169 671q38 0 60 27.5t23 80.5h-64q-1 -17 -9 -29t-23 -12q-18 0 -32 11.5t-32 23t-48 11.5q-37 0 -61 -27.5t-25 -81.5h63q5 42 33 42q19 0 33 -11.5t32.5 -23t49.5 -11.5z" />
    <glyph glyph-name="Imacron" unicode="&#x12a;" horiz-adv-x="264" 
d="M83 0h98v745h-98v-745zM-1 873h267v73h-267v-73z" />
    <glyph glyph-name="imacron" unicode="&#x12b;" horiz-adv-x="209" 
d="M58 0h93v539h-93v-539zM-29 666h267v73h-267v-73z" />
    <glyph glyph-name="Ibreve" unicode="&#x12c;" horiz-adv-x="264" 
d="M83 0h98v745h-98v-745zM132 847q40 0 73 19t52.5 50.5t19.5 69.5h-70q0 -30 -22 -52t-53 -22t-52.5 22t-21.5 52h-71q0 -37 19.5 -69t52.5 -51t73 -19z" />
    <glyph glyph-name="ibreve" unicode="&#x12d;" horiz-adv-x="209" 
d="M58 0h93v539h-93v-539zM104 640q40 0 73 19t52.5 50.5t19.5 69.5h-70q0 -30 -22 -52t-53 -22t-52.5 22t-21.5 52h-71q0 -37 19.5 -69t52.5 -51t73 -19z" />
    <glyph glyph-name="Iogonek" unicode="&#x12e;" horiz-adv-x="264" 
d="M83 0h98v745h-98v-745zM108 -181q29 0 57.5 10t55.5 32l-30 48q-18 -12 -37 -20t-39 -8q-25 0 -39.5 12.5t-14.5 34.5q0 25 21 47t67 39v21h-34q-56 -15 -88.5 -47.5t-32.5 -75.5t32.5 -68t81.5 -25z" />
    <glyph glyph-name="iogonek" unicode="&#x12f;" horiz-adv-x="209" 
d="M58 0h93v539h-93v-539zM105 655q26 0 44 18t18 45q0 26 -18 44t-44 18q-27 0 -45 -18t-18 -44t18 -44.5t45 -18.5zM81 -175q29 0 57.5 10t55.5 32l-30 48q-18 -12 -37 -20t-39 -8q-25 0 -39.5 12.5t-14.5 34.5q0 25 21 47t67 39v21h-34q-56 -15 -88.5 -47.5t-32.5 -75.5
t32.5 -68t81.5 -25z" />
    <glyph glyph-name="Idotaccent" unicode="&#x130;" horiz-adv-x="264" 
d="M83 0h98v745h-98v-745zM133 862q26 0 44 18t18 45q0 26 -18 44t-44 18q-27 0 -45 -18t-18 -44t18 -44.5t45 -18.5z" />
    <glyph glyph-name="dotlessi" unicode="&#x131;" horiz-adv-x="209" 
d="M58 0h93v539h-93v-539z" />
    <glyph glyph-name="Jcircumflex" unicode="&#x134;" horiz-adv-x="386" 
d="M50 0h41q98 0 156 58t58 156v531h-99v-533q0 -54 -31 -85.5t-84 -31.5h-41v-95zM93 847h86l76 94l78 -94h85l-116 144h-95z" />
    <glyph glyph-name="jcircumflex" unicode="&#x135;" horiz-adv-x="237" 
d="M-20 -220q53 0 94.5 20.5t66 60t24.5 97.5v581h-93v-581q0 -47 -27 -70t-68 -23q-20 0 -40 3v-84q8 -2 21 -3t22 -1zM-44 640h86l76 94l78 -94h85l-116 144h-95z" />
    <glyph glyph-name="uni0136" unicode="&#x136;" horiz-adv-x="662" 
d="M83 0h98v220l117 134l236 -354h117l-285 433l270 312h-123l-332 -381v381h-98v-745zM273 -339q117 27 117 174v85h-97v-120h49q-6 -80 -69 -97v-42z" />
    <glyph glyph-name="uni0137" unicode="&#x137;" horiz-adv-x="558" 
d="M72 0h93v162l92 97l179 -259h110l-221 322l207 217h-119l-248 -253v467h-93v-753zM221 -339q117 27 117 174v85h-97v-120h49q-6 -80 -69 -97v-42z" />
    <glyph glyph-name="kgreenlandic" unicode="&#x138;" horiz-adv-x="558" 
d="M72 0h93v240h101l171 -240h110l-198 283l168 256h-109l-139 -210h-104v210h-93v-539z" />
    <glyph glyph-name="Lacute" unicode="&#x139;" horiz-adv-x="535" 
d="M83 0h425v90h-327v655h-98v-745zM92 847h80l92 144h-99z" />
    <glyph glyph-name="lacute" unicode="&#x13a;" horiz-adv-x="237" 
d="M72 0h93v745h-93v-745zM79 847h80l92 144h-99z" />
    <glyph glyph-name="uni013B" unicode="&#x13b;" horiz-adv-x="535" 
d="M83 0h425v90h-327v655h-98v-745zM237 -339q117 27 117 174v85h-97v-120h49q-6 -80 -69 -97v-42z" />
    <glyph glyph-name="uni013C" unicode="&#x13c;" horiz-adv-x="237" 
d="M72 0h93v745h-93v-745zM61 -339q117 27 117 174v85h-97v-120h49q-6 -80 -69 -97v-42z" />
    <glyph glyph-name="Lcaron" unicode="&#x13d;" horiz-adv-x="622" 
d="M83 0h425v90h-327v655h-98v-745zM405 561h71l14 184h-100z" />
    <glyph glyph-name="lcaron" unicode="&#x13e;" horiz-adv-x="371" 
d="M72 0h93v745h-93v-745zM272 655h71l14 184h-100z" />
    <glyph glyph-name="Ldot" unicode="&#x13f;" horiz-adv-x="535" 
d="M83 0h425v90h-327v655h-98v-745zM345 310q26 0 44 18t18 45q0 26 -18 44t-44 18t-44.5 -18t-18.5 -44t18.5 -44.5t44.5 -18.5z" />
    <glyph glyph-name="ldot" unicode="&#x140;" horiz-adv-x="393" 
d="M72 0h93v745h-93v-745zM295 310q26 0 44 18t18 45q0 26 -18 44t-44 18t-44.5 -18t-18.5 -44t18.5 -44.5t44.5 -18.5z" />
    <glyph glyph-name="Lslash" unicode="&#x141;" horiz-adv-x="535" 
d="M83 0h425v90h-327v261l107 34v76l-107 -34v318h-98v-350l-107 -34v-76l107 34v-319z" />
    <glyph glyph-name="lslash" unicode="&#x142;" horiz-adv-x="237" 
d="M72 0h93v372l85 32v76l-85 -32v297h-93v-333l-84 -32v-76l84 32v-336z" />
    <glyph glyph-name="Nacute" unicode="&#x143;" horiz-adv-x="738" 
d="M83 0h98v558l392 -558h82v745h-99v-550l-391 550h-82v-745zM329 847h80l92 144h-99z" />
    <glyph glyph-name="nacute" unicode="&#x144;" 
d="M72 0h93v319q0 66 37 104t94 38t93 -37.5t36 -104.5v-319h94v349q0 58 -26.5 103.5t-72 72t-103.5 26.5q-50 0 -90 -20.5t-64 -57.5v66h-91v-539zM250 640h80l92 144h-99z" />
    <glyph glyph-name="uni0145" unicode="&#x145;" horiz-adv-x="738" 
d="M83 0h98v558l392 -558h82v745h-99v-550l-391 550h-82v-745zM311 -339q117 27 117 174v85h-97v-120h49q-6 -80 -69 -97v-42z" />
    <glyph glyph-name="uni0146" unicode="&#x146;" 
d="M72 0h93v319q0 66 37 104t94 38t93 -37.5t36 -104.5v-319h94v349q0 58 -26.5 103.5t-72 72t-103.5 26.5q-50 0 -90 -20.5t-64 -57.5v66h-91v-539zM232 -339q117 27 117 174v85h-97v-120h49q-6 -80 -69 -97v-42z" />
    <glyph glyph-name="Ncaron" unicode="&#x147;" horiz-adv-x="738" 
d="M83 0h98v558l392 -558h82v745h-99v-550l-391 550h-82v-745zM321 847h95l116 144h-85l-78 -94l-76 94h-86z" />
    <glyph glyph-name="ncaron" unicode="&#x148;" 
d="M72 0h93v319q0 66 37 104t94 38t93 -37.5t36 -104.5v-319h94v349q0 58 -26.5 103.5t-72 72t-103.5 26.5q-50 0 -90 -20.5t-64 -57.5v66h-91v-539zM242 640h95l116 144h-85l-78 -94l-76 94h-86z" />
    <glyph glyph-name="Eng" unicode="&#x14a;" horiz-adv-x="738" 
d="M470 -220q53 0 94.5 20.5t66 60t24.5 97.5v787h-99v-551l-391 551h-82v-745h98v557l377 -537v-62q0 -47 -25.5 -68.5t-66.5 -21.5q-19 0 -40 3v-87q8 -2 21.5 -3t22.5 -1z" />
    <glyph glyph-name="eng" unicode="&#x14b;" horiz-adv-x="600" 
d="M324 -220q53 0 94.5 20.5t66 60t24.5 97.5v391q0 58 -26.5 103.5t-72.5 72t-104 26.5q-50 0 -90 -20.5t-63 -57.5v66h-92v-539h94v319q0 66 37 104t94 38t93 -37.5t36 -104.5v-361q0 -47 -27 -70t-68 -23q-20 0 -40 3v-84q8 -2 21.5 -3t22.5 -1z" />
    <glyph glyph-name="Omacron" unicode="&#x14c;" horiz-adv-x="878" 
d="M439 -12q80 0 148.5 28.5t120.5 80.5t81 122t29 154q0 83 -29 153.5t-81 122t-120.5 80t-148.5 28.5q-79 0 -148 -28.5t-120.5 -80t-80.5 -121.5t-29 -154t29 -154t81 -122t120.5 -80.5t147.5 -28.5zM439 79q-81 0 -144.5 39.5t-99.5 106t-36 148.5t36 148t99 105.5
t145 39.5t145 -39.5t99 -105.5t36 -148t-36 -148.5t-99 -106t-145 -39.5zM306 873h267v73h-267v-73z" />
    <glyph glyph-name="omacron" unicode="&#x14d;" horiz-adv-x="654" 
d="M328 -12q76 0 139 36t100.5 100t37.5 146q0 81 -36.5 144.5t-99.5 100t-141 36.5q-79 0 -142 -36.5t-99.5 -100t-36.5 -144.5t37 -145t100 -100.5t141 -36.5zM328 78q-51 0 -91.5 25t-64.5 68.5t-24 98.5t24 98t64.5 68t91.5 25q50 0 90.5 -25t64 -68t23.5 -98
t-23.5 -98.5t-64 -68.5t-90.5 -25zM195 666h267v73h-267v-73z" />
    <glyph glyph-name="Obreve" unicode="&#x14e;" horiz-adv-x="878" 
d="M439 -12q80 0 148.5 28.5t120.5 80.5t81 122t29 154q0 83 -29 153.5t-81 122t-120.5 80t-148.5 28.5q-79 0 -148 -28.5t-120.5 -80t-80.5 -121.5t-29 -154t29 -154t81 -122t120.5 -80.5t147.5 -28.5zM439 79q-81 0 -144.5 39.5t-99.5 106t-36 148.5t36 148t99 105.5
t145 39.5t145 -39.5t99 -105.5t36 -148t-36 -148.5t-99 -106t-145 -39.5zM439 847q40 0 73 19t52.5 50.5t19.5 69.5h-70q0 -30 -22 -52t-53 -22t-52.5 22t-21.5 52h-71q0 -37 19.5 -69t52.5 -51t73 -19z" />
    <glyph glyph-name="obreve" unicode="&#x14f;" horiz-adv-x="654" 
d="M328 -12q76 0 139 36t100.5 100t37.5 146q0 81 -36.5 144.5t-99.5 100t-141 36.5q-79 0 -142 -36.5t-99.5 -100t-36.5 -144.5t37 -145t100 -100.5t141 -36.5zM328 78q-51 0 -91.5 25t-64.5 68.5t-24 98.5t24 98t64.5 68t91.5 25q50 0 90.5 -25t64 -68t23.5 -98
t-23.5 -98.5t-64 -68.5t-90.5 -25zM327 640q40 0 73 19t52.5 50.5t19.5 69.5h-70q0 -30 -22 -52t-53 -22t-52.5 22t-21.5 52h-71q0 -37 19.5 -69t52.5 -51t73 -19z" />
    <glyph glyph-name="Ohungarumlaut" unicode="&#x150;" horiz-adv-x="878" 
d="M439 -12q80 0 148.5 28.5t120.5 80.5t81 122t29 154q0 83 -29 153.5t-81 122t-120.5 80t-148.5 28.5q-79 0 -148 -28.5t-120.5 -80t-80.5 -121.5t-29 -154t29 -154t81 -122t120.5 -80.5t147.5 -28.5zM439 79q-81 0 -144.5 39.5t-99.5 106t-36 148.5t36 148t99 105.5
t145 39.5t145 -39.5t99 -105.5t36 -148t-36 -148.5t-99 -106t-145 -39.5zM321 847h80l92 144h-99zM476 847h80l93 144h-100z" />
    <glyph glyph-name="ohungarumlaut" unicode="&#x151;" horiz-adv-x="654" 
d="M328 -12q76 0 139 36t100.5 100t37.5 146q0 81 -36.5 144.5t-99.5 100t-141 36.5q-79 0 -142 -36.5t-99.5 -100t-36.5 -144.5t37 -145t100 -100.5t141 -36.5zM328 78q-51 0 -91.5 25t-64.5 68.5t-24 98.5t24 98t64.5 68t91.5 25q50 0 90.5 -25t64 -68t23.5 -98
t-23.5 -98.5t-64 -68.5t-90.5 -25zM210 640h80l92 144h-99zM365 640h80l93 144h-100z" />
    <glyph glyph-name="OE" unicode="&#x152;" horiz-adv-x="1248" 
d="M439 -12q86 0 160 34.5t125 96.5v-119h485v90h-386v239h366v90h-366v236h386v90h-485v-119q-51 62 -125 96.5t-160 34.5q-79 0 -148 -28.5t-120.5 -80t-80.5 -121.5t-29 -154t29 -154t81 -122t120.5 -80.5t147.5 -28.5zM439 79q-81 0 -144.5 39.5t-99.5 106t-36 148.5
t36 148t99 105.5t145 39.5t145 -39.5t99 -105.5t36 -148t-36 -148.5t-99 -106t-145 -39.5z" />
    <glyph glyph-name="oe" unicode="&#x153;" horiz-adv-x="1075" 
d="M328 -12q71 0 131 32.5t98 88.5q35 -55 93.5 -88t130.5 -33q83 0 144 39t86 95l-78 40q-23 -39 -60 -64t-91 -25q-45 0 -84 20.5t-63 58.5t-26 90h412q5 27 5 50q0 67 -30 126t-86.5 96t-136.5 37q-69 0 -125.5 -31.5t-91.5 -87.5q-37 55 -96.5 87t-131.5 32
q-79 0 -142 -36.5t-99.5 -100t-36.5 -144.5t37 -145t100 -100.5t141 -36.5zM611 322q9 68 55.5 107t106.5 39q42 0 76 -19t55 -51.5t21 -75.5h-314zM328 78q-51 0 -91.5 25t-64.5 68.5t-24 98.5t24 98t64.5 68t91.5 25q50 0 90.5 -25t64 -68t23.5 -98t-23.5 -98.5t-64 -68.5
t-90.5 -25z" />
    <glyph glyph-name="Racute" unicode="&#x154;" horiz-adv-x="648" 
d="M83 0h98v285h164l161 -285h114l-173 302q68 23 108 78.5t40 134.5q0 71 -31.5 122.5t-87.5 79.5t-130 28h-263v-745zM181 375v280h168q66 0 106.5 -37.5t40.5 -102.5q0 -64 -40.5 -102t-106.5 -38h-168zM280 847h80l92 144h-99z" />
    <glyph glyph-name="racute" unicode="&#x155;" horiz-adv-x="350" 
d="M72 0h93v321q0 65 35 100.5t92 35.5h47v88h-33q-50 0 -86 -17.5t-57 -52.5v64h-91v-539zM165 640h80l92 144h-99z" />
    <glyph glyph-name="uni0156" unicode="&#x156;" horiz-adv-x="648" 
d="M83 0h98v285h164l161 -285h114l-173 302q68 23 108 78.5t40 134.5q0 71 -31.5 122.5t-87.5 79.5t-130 28h-263v-745zM181 375v280h168q66 0 106.5 -37.5t40.5 -102.5q0 -64 -40.5 -102t-106.5 -38h-168zM262 -339q117 27 117 174v85h-97v-120h49q-6 -80 -69 -97v-42z" />
    <glyph glyph-name="uni0157" unicode="&#x157;" horiz-adv-x="350" 
d="M72 0h93v321q0 65 35 100.5t92 35.5h47v88h-33q-50 0 -86 -17.5t-57 -52.5v64h-91v-539zM61 -339q117 27 117 174v85h-97v-120h49q-6 -80 -69 -97v-42z" />
    <glyph glyph-name="Rcaron" unicode="&#x158;" horiz-adv-x="648" 
d="M83 0h98v285h164l161 -285h114l-173 302q68 23 108 78.5t40 134.5q0 71 -31.5 122.5t-87.5 79.5t-130 28h-263v-745zM181 375v280h168q66 0 106.5 -37.5t40.5 -102.5q0 -64 -40.5 -102t-106.5 -38h-168zM272 847h95l116 144h-85l-78 -94l-76 94h-86z" />
    <glyph glyph-name="rcaron" unicode="&#x159;" horiz-adv-x="350" 
d="M72 0h93v321q0 65 35 100.5t92 35.5h47v88h-33q-50 0 -86 -17.5t-57 -52.5v64h-91v-539zM157 640h95l116 144h-85l-78 -94l-76 94h-86z" />
    <glyph glyph-name="Sacute" unicode="&#x15a;" horiz-adv-x="646" 
d="M339 -12q73 0 128.5 26.5t87 73.5t31.5 108q0 146 -178 201l-125 37q-53 17 -79 49.5t-26 72.5q0 52 37 82.5t97 30.5q65 0 113.5 -33t71.5 -95l84 35q-17 51 -55.5 92t-93 65t-121.5 24t-119.5 -26.5t-82 -73t-29.5 -107.5q0 -70 43 -124t124 -79l137 -42q50 -15 77 -42
t27 -74q0 -52 -40.5 -82.5t-106.5 -30.5q-72 0 -126 38.5t-80 110.5l-85 -35q18 -57 59 -102.5t100 -72.5t130 -27zM283 847h80l92 144h-99z" />
    <glyph glyph-name="sacute" unicode="&#x15b;" horiz-adv-x="511" 
d="M265 -12q58 0 102 20t69 55.5t25 81.5q0 56 -37 96t-102 59l-88 26q-16 5 -33 12.5t-29 22t-12 37.5q0 32 24.5 52t64.5 20q44 0 80.5 -24.5t54.5 -66.5l76 35q-24 65 -80.5 101t-127.5 36q-53 0 -95.5 -20t-67 -55.5t-24.5 -83.5q0 -52 33.5 -91.5t106.5 -59.5l81 -23
q17 -4 35.5 -12.5t32 -23t13.5 -38.5q0 -34 -29 -55t-73 -21q-49 0 -89 27.5t-63 76.5l-74 -36q25 -68 85 -108t141 -40zM216 640h80l92 144h-99z" />
    <glyph glyph-name="Scircumflex" unicode="&#x15c;" horiz-adv-x="646" 
d="M339 -12q73 0 128.5 26.5t87 73.5t31.5 108q0 146 -178 201l-125 37q-53 17 -79 49.5t-26 72.5q0 52 37 82.5t97 30.5q65 0 113.5 -33t71.5 -95l84 35q-17 51 -55.5 92t-93 65t-121.5 24t-119.5 -26.5t-82 -73t-29.5 -107.5q0 -70 43 -124t124 -79l137 -42q50 -15 77 -42
t27 -74q0 -52 -40.5 -82.5t-106.5 -30.5q-72 0 -126 38.5t-80 110.5l-85 -35q18 -57 59 -102.5t100 -72.5t130 -27zM161 847h86l76 94l78 -94h85l-116 144h-95z" />
    <glyph glyph-name="scircumflex" unicode="&#x15d;" horiz-adv-x="511" 
d="M265 -12q58 0 102 20t69 55.5t25 81.5q0 56 -37 96t-102 59l-88 26q-16 5 -33 12.5t-29 22t-12 37.5q0 32 24.5 52t64.5 20q44 0 80.5 -24.5t54.5 -66.5l76 35q-24 65 -80.5 101t-127.5 36q-53 0 -95.5 -20t-67 -55.5t-24.5 -83.5q0 -52 33.5 -91.5t106.5 -59.5l81 -23
q17 -4 35.5 -12.5t32 -23t13.5 -38.5q0 -34 -29 -55t-73 -21q-49 0 -89 27.5t-63 76.5l-74 -36q25 -68 85 -108t141 -40zM93 640h86l76 94l78 -94h85l-116 144h-95z" />
    <glyph glyph-name="Scedilla" unicode="&#x15e;" horiz-adv-x="646" 
d="M339 -12q73 0 128.5 26.5t87 73.5t31.5 108q0 146 -178 201l-125 37q-53 17 -79 49.5t-26 72.5q0 52 37 82.5t97 30.5q65 0 113.5 -33t71.5 -95l84 35q-17 51 -55.5 92t-93 65t-121.5 24t-119.5 -26.5t-82 -73t-29.5 -107.5q0 -70 43 -124t124 -79l137 -42q50 -15 77 -42
t27 -74q0 -52 -40.5 -82.5t-106.5 -30.5q-72 0 -126 38.5t-80 110.5l-85 -35q18 -57 59 -102.5t100 -72.5t130 -27zM331 -230q58 0 88.5 27.5t30.5 66.5q0 35 -24 55.5t-59 20.5q-9 0 -19 -2l6 62h-63l-13 -107l21 -9q18 9 40 9q35 0 35 -32q0 -37 -49 -37q-12 0 -29 2.5
t-31 7.5l-12 -50q16 -7 38 -10.5t40 -3.5z" />
    <glyph glyph-name="scedilla" unicode="&#x15f;" horiz-adv-x="511" 
d="M265 -12q58 0 102 20t69 55.5t25 81.5q0 56 -37 96t-102 59l-88 26q-16 5 -33 12.5t-29 22t-12 37.5q0 32 24.5 52t64.5 20q44 0 80.5 -24.5t54.5 -66.5l76 35q-24 65 -80.5 101t-127.5 36q-53 0 -95.5 -20t-67 -55.5t-24.5 -83.5q0 -52 33.5 -91.5t106.5 -59.5l81 -23
q17 -4 35.5 -12.5t32 -23t13.5 -38.5q0 -34 -29 -55t-73 -21q-49 0 -89 27.5t-63 76.5l-74 -36q25 -68 85 -108t141 -40zM264 -230q58 0 88.5 27.5t30.5 66.5q0 35 -24 55.5t-59 20.5q-9 0 -19 -2l6 62h-63l-13 -107l21 -9q18 9 40 9q35 0 35 -32q0 -37 -49 -37
q-12 0 -29 2.5t-31 7.5l-12 -50q16 -7 38 -10.5t40 -3.5z" />
    <glyph glyph-name="Scaron" unicode="&#x160;" horiz-adv-x="646" 
d="M339 -12q73 0 128.5 26.5t87 73.5t31.5 108q0 146 -178 201l-125 37q-53 17 -79 49.5t-26 72.5q0 52 37 82.5t97 30.5q65 0 113.5 -33t71.5 -95l84 35q-17 51 -55.5 92t-93 65t-121.5 24t-119.5 -26.5t-82 -73t-29.5 -107.5q0 -70 43 -124t124 -79l137 -42q50 -15 77 -42
t27 -74q0 -52 -40.5 -82.5t-106.5 -30.5q-72 0 -126 38.5t-80 110.5l-85 -35q18 -57 59 -102.5t100 -72.5t130 -27zM275 847h95l116 144h-85l-78 -94l-76 94h-86z" />
    <glyph glyph-name="scaron" unicode="&#x161;" horiz-adv-x="511" 
d="M265 -12q58 0 102 20t69 55.5t25 81.5q0 56 -37 96t-102 59l-88 26q-16 5 -33 12.5t-29 22t-12 37.5q0 32 24.5 52t64.5 20q44 0 80.5 -24.5t54.5 -66.5l76 35q-24 65 -80.5 101t-127.5 36q-53 0 -95.5 -20t-67 -55.5t-24.5 -83.5q0 -52 33.5 -91.5t106.5 -59.5l81 -23
q17 -4 35.5 -12.5t32 -23t13.5 -38.5q0 -34 -29 -55t-73 -21q-49 0 -89 27.5t-63 76.5l-74 -36q25 -68 85 -108t141 -40zM208 640h95l116 144h-85l-78 -94l-76 94h-86z" />
    <glyph glyph-name="uni0162" unicode="&#x162;" horiz-adv-x="522" 
d="M213 0h99v655h199v90h-500v-90h202v-655zM269 -230q58 0 88.5 27.5t30.5 66.5q0 35 -24 55.5t-59 20.5q-9 0 -19 -2l6 62h-63l-13 -107l21 -9q18 9 40 9q35 0 35 -32q0 -37 -49 -37q-12 0 -29 2.5t-31 7.5l-12 -50q16 -7 38 -10.5t40 -3.5z" />
    <glyph glyph-name="uni0163" unicode="&#x163;" horiz-adv-x="396" 
d="M291 -6q11 0 27 1t29 4v83q-9 -1 -19 -2t-18 -1q-49 0 -69.5 24.5t-20.5 65.5v281h121v89h-121v124h-93v-44q0 -37 -21 -58.5t-57 -21.5h-20v-89h98v-284q0 -82 42.5 -127t121.5 -45zM291 -230q58 0 88.5 27.5t30.5 66.5q0 35 -24 55.5t-59 20.5q-9 0 -19 -2l6 62h-63
l-13 -107l21 -9q18 9 40 9q35 0 35 -32q0 -37 -49 -37q-12 0 -29 2.5t-31 7.5l-12 -50q16 -7 38 -10.5t40 -3.5z" />
    <glyph glyph-name="Tcaron" unicode="&#x164;" horiz-adv-x="522" 
d="M213 0h99v655h199v90h-500v-90h202v-655zM213 847h95l116 144h-85l-78 -94l-76 94h-86z" />
    <glyph glyph-name="tcaron" unicode="&#x165;" horiz-adv-x="426" 
d="M291 -6q11 0 27 1t29 4v83q-9 -1 -19 -2t-18 -1q-49 0 -69.5 24.5t-20.5 65.5v281h121v89h-121v124h-93v-44q0 -37 -21 -58.5t-57 -21.5h-20v-89h98v-284q0 -82 42.5 -127t121.5 -45zM316 655h71l14 184h-100z" />
    <glyph glyph-name="Tbar" unicode="&#x166;" horiz-adv-x="522" 
d="M213 0h99v337h137v71h-137v247h199v90h-500v-90h202v-247h-139v-71h139v-337z" />
    <glyph glyph-name="tbar" unicode="&#x167;" horiz-adv-x="396" 
d="M32 224h95v-58q0 -82 42.5 -127t121.5 -45q11 0 27 1t29 4v83q-9 -1 -19 -2t-18 -1q-49 0 -69.5 24.5t-20.5 65.5v55h123v89h-123v137h121v89h-121v124h-93v-44q0 -37 -21 -58.5t-57 -21.5h-20v-89h98v-137h-95v-89z" />
    <glyph glyph-name="Utilde" unicode="&#x168;" horiz-adv-x="706" 
d="M353 -12q82 0 143.5 34t96.5 93.5t35 135.5v494h-99v-492q0 -51 -22.5 -90.5t-62 -61.5t-91.5 -22t-91.5 22t-62 61.5t-22.5 90.5v492h-99v-494q0 -76 35 -135.5t97 -93.5t143 -34zM418 878q38 0 60 27.5t23 80.5h-64q-1 -17 -9 -29t-23 -12q-18 0 -32 11.5t-32 23
t-48 11.5q-37 0 -61 -27.5t-25 -81.5h63q5 42 33 42q19 0 33 -11.5t32.5 -23t49.5 -11.5z" />
    <glyph glyph-name="utilde" unicode="&#x169;" 
d="M263 -12q50 0 90 20.5t64 57.5v-66h91v539h-94v-319q0 -66 -36.5 -104t-93.5 -38q-58 0 -94 36.5t-36 97.5v327h-93v-337q0 -63 26 -111.5t71.5 -75.5t104.5 -27zM355 671q38 0 60 27.5t23 80.5h-64q-1 -17 -9 -29t-23 -12q-18 0 -32 11.5t-32 23t-48 11.5
q-37 0 -61 -27.5t-25 -81.5h63q5 42 33 42q19 0 33 -11.5t32.5 -23t49.5 -11.5z" />
    <glyph glyph-name="Umacron" unicode="&#x16a;" horiz-adv-x="706" 
d="M353 -12q82 0 143.5 34t96.5 93.5t35 135.5v494h-99v-492q0 -51 -22.5 -90.5t-62 -61.5t-91.5 -22t-91.5 22t-62 61.5t-22.5 90.5v492h-99v-494q0 -76 35 -135.5t97 -93.5t143 -34zM220 873h267v73h-267v-73z" />
    <glyph glyph-name="umacron" unicode="&#x16b;" 
d="M263 -12q50 0 90 20.5t64 57.5v-66h91v539h-94v-319q0 -66 -36.5 -104t-93.5 -38q-58 0 -94 36.5t-36 97.5v327h-93v-337q0 -63 26 -111.5t71.5 -75.5t104.5 -27zM157 666h267v73h-267v-73z" />
    <glyph glyph-name="Ubreve" unicode="&#x16c;" horiz-adv-x="706" 
d="M353 -12q82 0 143.5 34t96.5 93.5t35 135.5v494h-99v-492q0 -51 -22.5 -90.5t-62 -61.5t-91.5 -22t-91.5 22t-62 61.5t-22.5 90.5v492h-99v-494q0 -76 35 -135.5t97 -93.5t143 -34zM353 847q40 0 73 19t52.5 50.5t19.5 69.5h-70q0 -30 -22 -52t-53 -22t-52.5 22t-21.5 52
h-71q0 -37 19.5 -69t52.5 -51t73 -19z" />
    <glyph glyph-name="ubreve" unicode="&#x16d;" 
d="M263 -12q50 0 90 20.5t64 57.5v-66h91v539h-94v-319q0 -66 -36.5 -104t-93.5 -38q-58 0 -94 36.5t-36 97.5v327h-93v-337q0 -63 26 -111.5t71.5 -75.5t104.5 -27zM290 640q40 0 73 19t52.5 50.5t19.5 69.5h-70q0 -30 -22 -52t-53 -22t-52.5 22t-21.5 52h-71
q0 -37 19.5 -69t52.5 -51t73 -19z" />
    <glyph glyph-name="Uring" unicode="&#x16e;" horiz-adv-x="706" 
d="M353 -12q82 0 143.5 34t96.5 93.5t35 135.5v494h-99v-492q0 -51 -22.5 -90.5t-62 -61.5t-91.5 -22t-91.5 22t-62 61.5t-22.5 90.5v492h-99v-494q0 -76 35 -135.5t97 -93.5t143 -34zM353 795q52 0 87 35t35 86q0 52 -35 87t-87 35t-87.5 -35t-35.5 -87q0 -51 35.5 -86
t87.5 -35zM352 854q-26 0 -44 17.5t-18 44.5q0 28 18 45.5t44 17.5t44 -17.5t18 -45.5q0 -27 -18 -44.5t-44 -17.5z" />
    <glyph glyph-name="uring" unicode="&#x16f;" 
d="M263 -12q50 0 90 20.5t64 57.5v-66h91v539h-94v-319q0 -66 -36.5 -104t-93.5 -38q-58 0 -94 36.5t-36 97.5v327h-93v-337q0 -63 26 -111.5t71.5 -75.5t104.5 -27zM291 588q52 0 87 35t35 86q0 52 -35 87t-87 35t-87.5 -35t-35.5 -87q0 -51 35.5 -86t87.5 -35zM290 647
q-26 0 -44 17.5t-18 44.5q0 28 18 45.5t44 17.5t44 -17.5t18 -45.5q0 -27 -18 -44.5t-44 -17.5z" />
    <glyph glyph-name="Uhungarumlaut" unicode="&#x170;" horiz-adv-x="706" 
d="M353 -12q82 0 143.5 34t96.5 93.5t35 135.5v494h-99v-492q0 -51 -22.5 -90.5t-62 -61.5t-91.5 -22t-91.5 22t-62 61.5t-22.5 90.5v492h-99v-494q0 -76 35 -135.5t97 -93.5t143 -34zM235 847h80l92 144h-99zM390 847h80l93 144h-100z" />
    <glyph glyph-name="uhungarumlaut" unicode="&#x171;" 
d="M263 -12q50 0 90 20.5t64 57.5v-66h91v539h-94v-319q0 -66 -36.5 -104t-93.5 -38q-58 0 -94 36.5t-36 97.5v327h-93v-337q0 -63 26 -111.5t71.5 -75.5t104.5 -27zM173 640h80l92 144h-99zM328 640h80l93 144h-100z" />
    <glyph glyph-name="Uogonek" unicode="&#x172;" horiz-adv-x="706" 
d="M353 -12q82 0 143.5 34t96.5 93.5t35 135.5v494h-99v-492q0 -51 -22.5 -90.5t-62 -61.5t-91.5 -22t-91.5 22t-62 61.5t-22.5 90.5v492h-99v-494q0 -76 35 -135.5t97 -93.5t143 -34zM379 -181q29 0 57.5 10t55.5 32l-30 48q-18 -12 -37 -20t-39 -8q-25 0 -39.5 12.5
t-14.5 34.5q0 25 21 47t67 39v21h-34q-56 -15 -88.5 -47.5t-32.5 -75.5t32.5 -68t81.5 -25z" />
    <glyph glyph-name="uogonek" unicode="&#x173;" 
d="M263 -12q50 0 90 20.5t64 57.5v-66h91v539h-94v-319q0 -66 -36.5 -104t-93.5 -38q-58 0 -94 36.5t-36 97.5v327h-93v-337q0 -63 26 -111.5t71.5 -75.5t104.5 -27zM459 -175q29 0 57.5 10t55.5 32l-30 48q-18 -12 -37 -20t-39 -8q-25 0 -39.5 12.5t-14.5 34.5q0 25 21 47
t67 39v21h-34q-56 -15 -88.5 -47.5t-32.5 -75.5t32.5 -68t81.5 -25z" />
    <glyph glyph-name="Wcircumflex" unicode="&#x174;" horiz-adv-x="996" 
d="M220 0h109l169 606l169 -606h109l209 745h-103l-164 -610l-168 610h-103l-170 -612l-163 612h-103zM336 847h86l76 94l78 -94h85l-116 144h-95z" />
    <glyph glyph-name="wcircumflex" unicode="&#x175;" horiz-adv-x="826" 
d="M196 0h89l128 406l128 -406h89l185 539h-102l-130 -395l-126 395h-88l-126 -395l-129 395h-103zM251 640h86l76 94l78 -94h85l-116 144h-95z" />
    <glyph glyph-name="Ycircumflex" unicode="&#x176;" horiz-adv-x="635" 
d="M269 0h99v341l256 404h-111l-195 -308l-196 308h-111l258 -404v-341zM156 847h86l76 94l78 -94h85l-116 144h-95z" />
    <glyph glyph-name="ycircumflex" unicode="&#x177;" horiz-adv-x="553" 
d="M101 -220q53 0 90.5 21t64 56.5t43.5 78.5l243 603h-103l-163 -421l-164 421h-101l214 -540l-16 -39q-22 -50 -46.5 -71t-71.5 -21q-16 0 -32.5 2.5t-27.5 4.5v-83q16 -7 34 -9.5t36 -2.5zM114 640h86l76 94l78 -94h85l-116 144h-95z" />
    <glyph glyph-name="Ydieresis" unicode="&#x178;" horiz-adv-x="635" 
d="M269 0h99v341l256 404h-111l-195 -308l-196 308h-111l258 -404v-341zM232 862q26 0 44 18t18 45q0 26 -18 44t-44 18q-27 0 -45 -18t-18 -44t18 -44.5t45 -18.5zM407 862q26 0 44 18t18 45q0 26 -18 44t-44 18q-27 0 -45 -18t-18 -44t18 -44.5t45 -18.5z" />
    <glyph glyph-name="Zacute" unicode="&#x179;" 
d="M19 0h542v90h-413l403 583v72h-508v-90h381l-405 -583v-72zM250 847h80l92 144h-99z" />
    <glyph glyph-name="zacute" unicode="&#x17a;" horiz-adv-x="460" 
d="M19 0h422v89h-293l291 371v79h-404v-89h278l-294 -371v-79zM187 640h80l92 144h-99z" />
    <glyph glyph-name="Zdotaccent" unicode="&#x17b;" 
d="M19 0h542v90h-413l403 583v72h-508v-90h381l-405 -583v-72zM291 862q26 0 44 18t18 45q0 26 -18 44t-44 18q-27 0 -45 -18t-18 -44t18 -44.5t45 -18.5z" />
    <glyph glyph-name="zdotaccent" unicode="&#x17c;" horiz-adv-x="460" 
d="M19 0h422v89h-293l291 371v79h-404v-89h278l-294 -371v-79zM228 655q26 0 44 18t18 45q0 26 -18 44t-44 18q-27 0 -45 -18t-18 -44t18 -44.5t45 -18.5z" />
    <glyph glyph-name="Zcaron" unicode="&#x17d;" 
d="M19 0h542v90h-413l403 583v72h-508v-90h381l-405 -583v-72zM242 847h95l116 144h-85l-78 -94l-76 94h-86z" />
    <glyph glyph-name="zcaron" unicode="&#x17e;" horiz-adv-x="460" 
d="M19 0h422v89h-293l291 371v79h-404v-89h278l-294 -371v-79zM179 640h95l116 144h-85l-78 -94l-76 94h-86z" />
    <glyph glyph-name="uni018F" unicode="&#x18f;" horiz-adv-x="826" 
d="M408 -12q81 0 147 30t113 82.5t72.5 121.5t25.5 147q0 83 -28 153.5t-78.5 123t-118.5 82t-149 29.5q-69 0 -131 -22t-108.5 -61.5t-71.5 -92.5l85 -43q32 60 91 94t134 34q76 0 136.5 -34.5t97 -93.5t41.5 -134h-599q-6 -31 -6 -63q0 -76 25.5 -140t72 -112t110 -74.5
t139.5 -26.5zM169 315v3h496q-9 -74 -43.5 -127.5t-88.5 -82.5t-121 -29q-71 0 -126 30.5t-86 84t-31 121.5z" />
    <glyph glyph-name="florin" unicode="&#x192;" horiz-adv-x="515" 
d="M116 -12q52 0 94.5 21t68 63t25.5 106v154h128v81h-128v151q0 62 30 85t76 23q5 0 16.5 -0.5t18.5 -2.5v83q-9 2 -22 3.5t-24 1.5q-52 0 -94.5 -21t-68 -63t-25.5 -106v-154h-128v-81h128v-151q0 -61 -29.5 -84.5t-76.5 -23.5q-5 0 -16 1t-19 2v-83q9 -2 22.5 -3.5
t23.5 -1.5z" />
    <glyph glyph-name="Ohorn" unicode="&#x1a0;" horiz-adv-x="878" 
d="M439 -12q80 0 148.5 28.5t120.5 80.5t81 122t29 154q0 95 -38 173.5t-103 129.5q56 3 90 32.5t34 90.5q0 26 -7 47.5t-18 40.5h-100q9 -19 15.5 -39t6.5 -40q0 -34 -17 -42.5t-32 -8.5h-210q-79 0 -148 -28.5t-120.5 -80t-80.5 -121.5t-29 -154t29 -154t81 -122
t120.5 -80.5t147.5 -28.5zM439 79q-81 0 -144.5 39.5t-99.5 106t-36 148.5t36 148t99 105.5t145 39.5t145 -39.5t99 -105.5t36 -148t-36 -148.5t-99 -106t-145 -39.5z" />
    <glyph glyph-name="ohorn" unicode="&#x1a1;" horiz-adv-x="654" 
d="M328 -12q76 0 139 36t100.5 100t37.5 146q0 68 -26 124t-72 93q33 11 51.5 37.5t18.5 69.5q0 26 -7 46.5t-16 41.5h-87q8 -20 14.5 -39.5t6.5 -39.5q0 -34 -16.5 -43t-33.5 -9h-110q-79 0 -142 -36.5t-99.5 -100t-36.5 -144.5t37 -145t100 -100.5t141 -36.5zM328 78
q-51 0 -91.5 25t-64.5 68.5t-24 98.5t24 98t64.5 68t91.5 25q50 0 90.5 -25t64 -68t23.5 -98t-23.5 -98.5t-64 -68.5t-90.5 -25z" />
    <glyph glyph-name="Uhorn" unicode="&#x1af;" horiz-adv-x="706" 
d="M353 -12q82 0 143.5 34t96.5 93.5t35 135.5v413h5q61 0 98 29.5t37 93.5q0 26 -6.5 47.5t-17.5 40.5h-101q10 -19 16.5 -39t6.5 -40q0 -34 -17 -42.5t-33 -8.5h-87v-492q0 -51 -22.5 -90.5t-62 -61.5t-91.5 -22t-91.5 22t-62 61.5t-22.5 90.5v492h-99v-494
q0 -76 35 -135.5t97 -93.5t143 -34z" />
    <glyph glyph-name="uhorn" unicode="&#x1b0;" horiz-adv-x="617" 
d="M263 -12q50 0 90 20.5t64 57.5v-66h91v469q45 5 72 33t27 80q0 26 -6.5 46.5t-16.5 41.5h-87q9 -20 15.5 -39.5t6.5 -39.5q0 -34 -16.5 -43t-33.5 -9h-55v-319q0 -66 -36.5 -104t-93.5 -38q-58 0 -94 36.5t-36 97.5v327h-93v-337q0 -63 26 -111.5t71.5 -75.5t104.5 -27z
" />
    <glyph glyph-name="uni01C4" unicode="&#x1c4;" horiz-adv-x="1321" 
d="M983 847h95l116 144h-85l-78 -95l-76 95h-86zM83 0h244q113 0 197 47t130 131t46 195q0 112 -46 195.5t-130 130t-197 46.5h-244v-745zM761 0h541v90h-413l404 583v72h-509v-90h381l-404 -583v-72zM181 90v565h147q82 0 142.5 -34.5t94 -97.5t33.5 -150q0 -86 -33 -150
t-93.5 -98.5t-143.5 -34.5h-147z" />
    <glyph glyph-name="uni01C5" unicode="&#x1c5;" horiz-adv-x="1201" 
d="M920 640h95l116 144h-85l-78 -94l-76 94h-86zM83 0h244q113 0 197 47t130 131t46 195q0 112 -46 195.5t-130 130t-197 46.5h-244v-745zM181 90v565h147q82 0 142.5 -34.5t94 -97.5t33.5 -150q0 -86 -33 -150t-93.5 -98.5t-143.5 -34.5h-147zM761 0h421v89h-293l291 371
v79h-403v-89h277l-293 -371v-79z" />
    <glyph glyph-name="uni01C6" unicode="&#x1c6;" horiz-adv-x="1128" 
d="M848 640h94l116 144h-85l-78 -95l-76 95h-86zM317 -12q60 0 109.5 23.5t79.5 67.5v-79h91v745h-94v-278q-31 40 -79 62t-107 22q-76 0 -136.5 -37t-95.5 -100.5t-35 -144.5q0 -80 35 -143.5t95.5 -100.5t136.5 -37zM688 0h421v89h-293l291 371v79h-403v-89h278l-294 -371
v-79zM325 78q-51 0 -91 25t-63 68.5t-23 97.5q0 55 23 98.5t63.5 68.5t90.5 25q51 0 91 -25.5t63.5 -68.5t23.5 -98q0 -54 -23.5 -97.5t-63.5 -68.5t-91 -25z" />
    <glyph glyph-name="uni01C7" unicode="&#x1c7;" horiz-adv-x="1125" 
d="M83 0h425v90h-327v655h-98v-745zM816 -12q71 0 122 29t78 78.5t27 112.5v537h-99v-537q0 -57 -34 -93t-93 -36q-55 0 -94.5 31t-56.5 86l-91 -26q19 -82 84 -132t157 -50z" />
    <glyph glyph-name="uni01C8" unicode="&#x1c8;" horiz-adv-x="772" 
d="M83 0h425v90h-327v655h-98v-745zM607 625h93v120h-93v-120zM515 -220q53 0 94.5 20.5t66 60t24.5 97.5v581h-93v-581q0 -47 -27 -70t-68 -23q-20 0 -40 3v-84q8 -2 21 -3t22 -1z" />
    <glyph glyph-name="uni01C9" unicode="&#x1c9;" horiz-adv-x="474" 
d="M72 0h93v745h-93v-745zM309 625h93v120h-93v-120zM217 -220q53 0 94.5 20.5t66 60t24.5 97.5v581h-93v-581q0 -47 -27 -70t-68 -23q-20 0 -40 3v-84q8 -2 21 -3t22 -1z" />
    <glyph glyph-name="uni01CA" unicode="&#x1ca;" horiz-adv-x="1124" 
d="M83 0h98v558l392 -558h82v745h-99v-550l-391 550h-82v-745zM788 0h41q98 0 156 58t58 156v531h-99v-533q0 -54 -31 -85.5t-84 -31.5h-41v-95z" />
    <glyph glyph-name="uni01CB" unicode="&#x1cb;" horiz-adv-x="974" 
d="M83 0h98v558l392 -558h82v745h-99v-550l-391 550h-82v-745zM810 625h93v120h-93v-120zM718 -220q53 0 94.5 20.5t66 60t24.5 97.5v581h-93v-581q0 -47 -27 -70t-68 -23q-20 0 -40 3v-84q8 -2 21 -3t22 -1z" />
    <glyph glyph-name="uni01CC" unicode="&#x1cc;" horiz-adv-x="816" 
d="M72 0h93v319q0 66 37 104t94 38t93 -37.5t36 -104.5v-319h94v349q0 58 -26.5 103.5t-72 72t-103.5 26.5q-50 0 -90 -20.5t-64 -57.5v66h-91v-539zM652 625h93v120h-93v-120zM560 -220q53 0 94.5 20.5t66 60t24.5 97.5v581h-93v-581q0 -47 -27 -70t-68 -23q-20 0 -40 3
v-84q8 -2 21 -3t22 -1z" />
    <glyph glyph-name="Gcaron" unicode="&#x1e6;" horiz-adv-x="817" 
d="M427 -12q69 0 131 24t109 69t74 107.5t27 140.5v66h-342v-85h243v-4q0 -67 -32.5 -118t-87 -80t-122.5 -29q-78 0 -138.5 37t-95 103t-34.5 153q0 88 34 154t94.5 103t138.5 37t134 -38t81 -103l88 43q-18 49 -60.5 92t-104 70t-138.5 27q-79 0 -145.5 -28.5t-116 -80.5
t-76.5 -122t-27 -154q0 -83 27.5 -153.5t76.5 -122t116 -80t146 -28.5zM361 847h95l116 144h-85l-78 -94l-76 94h-86z" />
    <glyph glyph-name="gcaron" unicode="&#x1e7;" horiz-adv-x="659" 
d="M329 -220q75 0 133.5 31.5t91.5 86.5t33 125v516h-91v-75q-32 41 -79 64t-104 23q-76 0 -135.5 -35.5t-93.5 -96.5t-34 -137t34.5 -137t94 -96.5t135.5 -35.5q55 0 102 22t77 63v-75q0 -49 -22.5 -83.5t-59.5 -52t-83 -17.5q-60 0 -99.5 26.5t-53.5 64.5l-87 -40
q27 -63 91 -102t150 -39zM322 103q-50 0 -89.5 24t-62 64.5t-22.5 90.5t23 90.5t62.5 64.5t88.5 24q48 0 87 -24t61.5 -64.5t22.5 -90.5q0 -49 -22.5 -90t-61.5 -65t-87 -24zM281 640h95l116 144h-85l-78 -94l-76 94h-86z" />
    <glyph glyph-name="uni01EA" unicode="&#x1ea;" horiz-adv-x="878" 
d="M439 -12q80 0 148.5 28.5t120.5 80.5t81 122t29 154q0 83 -29 153.5t-81 122t-120.5 80t-148.5 28.5q-79 0 -148 -28.5t-120.5 -80t-80.5 -121.5t-29 -154t29 -154t81 -122t120.5 -80.5t147.5 -28.5zM439 79q-81 0 -144.5 39.5t-99.5 106t-36 148.5t36 148t99 105.5
t145 39.5t145 -39.5t99 -105.5t36 -148t-36 -148.5t-99 -106t-145 -39.5zM478 -181q29 0 57.5 10t55.5 32l-30 48q-18 -12 -37 -20t-39 -8q-25 0 -39.5 12.5t-14.5 34.5q0 25 21 47t67 39v21h-34q-56 -15 -88.5 -47.5t-32.5 -75.5t32.5 -68t81.5 -25z" />
    <glyph glyph-name="uni01EB" unicode="&#x1eb;" horiz-adv-x="654" 
d="M328 -12q76 0 139 36t100.5 100t37.5 146q0 81 -36.5 144.5t-99.5 100t-141 36.5q-79 0 -142 -36.5t-99.5 -100t-36.5 -144.5t37 -145t100 -100.5t141 -36.5zM328 78q-51 0 -91.5 25t-64.5 68.5t-24 98.5t24 98t64.5 68t91.5 25q50 0 90.5 -25t64 -68t23.5 -98
t-23.5 -98.5t-64 -68.5t-90.5 -25zM341 -175q29 0 57.5 10t55.5 32l-30 48q-18 -12 -37 -20t-39 -8q-25 0 -39.5 12.5t-14.5 34.5q0 25 21 47t67 39v21h-34q-56 -15 -88.5 -47.5t-32.5 -75.5t32.5 -68t81.5 -25z" />
    <glyph glyph-name="Aringacute" unicode="&#x1fa;" horiz-adv-x="672" 
d="M11 0h105l61 175h318l61 -175h105l-267 745h-116zM208 265l128 369l128 -369h-256zM294 1060h83l60 94h-96zM336 795q52 0 87 35t35 86q0 52 -35 87t-87 35t-87.5 -35t-35.5 -87q0 -51 35.5 -86t87.5 -35zM335 854q-26 0 -44 17.5t-18 44.5q0 28 18 45.5t44 17.5
t44 -17.5t18 -45.5q0 -27 -18 -44.5t-44 -17.5z" />
    <glyph glyph-name="aringacute" unicode="&#x1fb;" horiz-adv-x="575" 
d="M230 -12q59 0 106 22.5t76 59.5v-70h91v366q0 55 -26.5 96.5t-73.5 65t-109 23.5q-48 0 -92 -17t-77 -46.5t-48 -66.5l81 -42q17 38 52 62t82 24q53 0 85.5 -27.5t32.5 -71.5v-25l-184 -30q-91 -15 -133.5 -60.5t-42.5 -109.5q0 -68 50.5 -110.5t129.5 -42.5zM148 144
q0 35 23.5 59t75.5 33l163 27v-34q0 -45 -21 -82t-59 -58.5t-89 -21.5q-40 0 -66.5 22t-26.5 55zM246 853h83l60 94h-96zM288 588q52 0 87 35t35 86q0 52 -35 87t-87 35t-87.5 -35t-35.5 -87q0 -51 35.5 -86t87.5 -35zM287 647q-26 0 -44 17.5t-18 44.5q0 28 18 45.5
t44 17.5t44 -17.5t18 -45.5q0 -27 -18 -44.5t-44 -17.5z" />
    <glyph glyph-name="AEacute" unicode="&#x1fc;" horiz-adv-x="987" 
d="M11 0h105l61 175h286v-175h485l1 90h-387v239h367v90h-367v236h387v90h-671zM208 265l136 390h119v-390h-255zM454 847h80l92 144h-99z" />
    <glyph glyph-name="aeacute" unicode="&#x1fd;" horiz-adv-x="978" 
d="M230 -12q59 0 106.5 22t75.5 60v-70h87v69q73 -81 190 -81q53 0 97.5 18t78 48.5t49.5 67.5l-78 40q-23 -39 -60.5 -64t-91.5 -25q-45 0 -83.5 20.5t-62.5 58.5t-27 90h412q3 12 4 25.5t1 24.5q0 67 -30 126t-86.5 96t-136.5 37q-60 0 -111 -24.5t-86 -67.5
q-26 42 -74 67t-110 25q-48 0 -92 -17t-77 -46.5t-48 -66.5l81 -42q17 38 52 62t82 24q53 0 85.5 -27.5t32.5 -71.5v-25l-184 -30q-91 -15 -133.5 -60.5t-42.5 -109.5q0 -68 50.5 -110.5t129.5 -42.5zM514 322q8 68 54.5 107t106.5 39q42 0 76 -19t55 -51.5t22 -75.5h-314z
M241 67q-40 0 -66.5 22t-26.5 55q0 35 23.5 59t75.5 33l163 27v-34q0 -45 -21 -82t-59 -58.5t-89 -21.5zM449 640h80l92 144h-99z" />
    <glyph glyph-name="Oslashacute" unicode="&#x1fe;" horiz-adv-x="878" 
d="M76 0h108l42 51q46 -30 100 -46.5t113 -16.5q80 0 148.5 28.5t120.5 80.5t81 122t29 154q0 80 -27.5 148.5t-75.5 119.5l87 104h-108l-42 -51q-45 30 -99 46.5t-114 16.5q-79 0 -148 -28.5t-120.5 -80t-80.5 -121.5t-29 -154q0 -80 27 -148.5t75 -119.5zM159 373
q0 82 36 148t99 105.5t145 39.5q43 0 82 -11.5t71 -32.5l-367 -443q-31 39 -48.5 88.5t-17.5 105.5zM439 79q-43 0 -81.5 11.5t-71.5 33.5l367 442q32 -39 49 -88t17 -105q0 -82 -36 -148.5t-99 -106t-145 -39.5zM399 847h80l92 144h-99z" />
    <glyph glyph-name="oslashacute" unicode="&#x1ff;" horiz-adv-x="654" 
d="M54 0h101l24 29q33 -19 70.5 -30t78.5 -11q76 0 139 36t100.5 100t37.5 146q0 56 -18.5 104.5t-50.5 85.5l65 79h-101l-24 -29q-32 20 -69.5 30.5t-78.5 10.5q-79 0 -142 -36.5t-99.5 -100t-36.5 -144.5q0 -57 18.5 -105.5t51.5 -84.5zM148 270q0 55 24 98t64.5 68
t91.5 25q48 0 88 -24l-234 -282q-16 23 -25 52.5t-9 62.5zM328 78q-48 0 -89 24l234 282q15 -24 24 -52.5t9 -61.5q0 -55 -23.5 -98.5t-64 -68.5t-90.5 -25zM288 640h80l92 144h-99z" />
    <glyph glyph-name="uni0200" unicode="&#x200;" horiz-adv-x="672" 
d="M11 0h105l61 175h318l61 -175h105l-267 745h-116zM208 265l128 369l128 -369h-256zM374 847h80l-73 144h-100zM218 847h80l-73 144h-99z" />
    <glyph glyph-name="uni0201" unicode="&#x201;" horiz-adv-x="575" 
d="M230 -12q59 0 106 22.5t76 59.5v-70h91v366q0 55 -26.5 96.5t-73.5 65t-109 23.5q-48 0 -92 -17t-77 -46.5t-48 -66.5l81 -42q17 38 52 62t82 24q53 0 85.5 -27.5t32.5 -71.5v-25l-184 -30q-91 -15 -133.5 -60.5t-42.5 -109.5q0 -68 50.5 -110.5t129.5 -42.5zM148 144
q0 35 23.5 59t75.5 33l163 27v-34q0 -45 -21 -82t-59 -58.5t-89 -21.5q-40 0 -66.5 22t-26.5 55zM325 640h80l-73 144h-100zM169 640h80l-73 144h-99z" />
    <glyph glyph-name="uni0202" unicode="&#x202;" horiz-adv-x="672" 
d="M11 0h105l61 175h318l61 -175h105l-267 745h-116zM208 265l128 369l128 -369h-256zM191 847h71q0 30 21.5 52t52.5 22t53 -22t22 -52h70q0 38 -19.5 69.5t-52.5 50.5t-73 19t-73 -19t-52.5 -50.5t-19.5 -69.5z" />
    <glyph glyph-name="uni0203" unicode="&#x203;" horiz-adv-x="575" 
d="M230 -12q59 0 106 22.5t76 59.5v-70h91v366q0 55 -26.5 96.5t-73.5 65t-109 23.5q-48 0 -92 -17t-77 -46.5t-48 -66.5l81 -42q17 38 52 62t82 24q53 0 85.5 -27.5t32.5 -71.5v-25l-184 -30q-91 -15 -133.5 -60.5t-42.5 -109.5q0 -68 50.5 -110.5t129.5 -42.5zM148 144
q0 35 23.5 59t75.5 33l163 27v-34q0 -45 -21 -82t-59 -58.5t-89 -21.5q-40 0 -66.5 22t-26.5 55zM142 640h71q0 30 21.5 52t52.5 22t53 -22t22 -52h70q0 38 -19.5 69.5t-52.5 50.5t-73 19t-73 -19t-52.5 -50.5t-19.5 -69.5z" />
    <glyph glyph-name="uni0204" unicode="&#x204;" horiz-adv-x="606" 
d="M83 0h485v90h-387v239h367v90h-367v236h387v90h-485v-745zM363 847h80l-73 144h-100zM207 847h80l-73 144h-99z" />
    <glyph glyph-name="uni0205" unicode="&#x205;" horiz-adv-x="614" 
d="M320 -12q83 0 144 39t86 95l-78 40q-23 -39 -60 -64t-91 -25q-45 0 -83.5 20.5t-63 58.5t-26.5 90h412q5 27 5 50q0 67 -30 126t-86.5 96t-136.5 37q-75 0 -134 -36t-93.5 -99.5t-34.5 -144.5t35 -145t96 -101t139 -37zM312 468q41 0 75 -18.5t55 -51.5t22 -76h-314
q10 68 56 107t106 39zM345 640h80l-73 144h-100zM189 640h80l-73 144h-99z" />
    <glyph glyph-name="uni0206" unicode="&#x206;" horiz-adv-x="606" 
d="M83 0h485v90h-387v239h367v90h-367v236h387v90h-485v-745zM180 847h71q0 30 21.5 52t52.5 22t53 -22t22 -52h70q0 38 -19.5 69.5t-52.5 50.5t-73 19t-73 -19t-52.5 -50.5t-19.5 -69.5z" />
    <glyph glyph-name="uni0207" unicode="&#x207;" horiz-adv-x="614" 
d="M320 -12q83 0 144 39t86 95l-78 40q-23 -39 -60 -64t-91 -25q-45 0 -83.5 20.5t-63 58.5t-26.5 90h412q5 27 5 50q0 67 -30 126t-86.5 96t-136.5 37q-75 0 -134 -36t-93.5 -99.5t-34.5 -144.5t35 -145t96 -101t139 -37zM312 468q41 0 75 -18.5t55 -51.5t22 -76h-314
q10 68 56 107t106 39zM162 640h71q0 30 21.5 52t52.5 22t53 -22t22 -52h70q0 38 -19.5 69.5t-52.5 50.5t-73 19t-73 -19t-52.5 -50.5t-19.5 -69.5z" />
    <glyph glyph-name="uni0208" unicode="&#x208;" horiz-adv-x="264" 
d="M83 0h98v745h-98v-745zM170 847h80l-73 144h-100zM14 847h80l-73 144h-99z" />
    <glyph glyph-name="uni0209" unicode="&#x209;" horiz-adv-x="209" 
d="M58 0h93v539h-93v-539zM142 640h80l-73 144h-100zM-14 640h80l-73 144h-99z" />
    <glyph glyph-name="uni020A" unicode="&#x20a;" horiz-adv-x="264" 
d="M83 0h98v745h-98v-745zM-13 847h71q0 30 21.5 52t52.5 22t53 -22t22 -52h70q0 38 -19.5 69.5t-52.5 50.5t-73 19t-73 -19t-52.5 -50.5t-19.5 -69.5z" />
    <glyph glyph-name="uni020B" unicode="&#x20b;" horiz-adv-x="209" 
d="M58 0h93v539h-93v-539zM-41 640h71q0 30 21.5 52t52.5 22t53 -22t22 -52h70q0 38 -19.5 69.5t-52.5 50.5t-73 19t-73 -19t-52.5 -50.5t-19.5 -69.5z" />
    <glyph glyph-name="uni020C" unicode="&#x20c;" horiz-adv-x="878" 
d="M439 -12q80 0 148.5 28.5t120.5 80.5t81 122t29 154q0 83 -29 153.5t-81 122t-120.5 80t-148.5 28.5q-79 0 -148 -28.5t-120.5 -80t-80.5 -121.5t-29 -154t29 -154t81 -122t120.5 -80.5t147.5 -28.5zM439 79q-81 0 -144.5 39.5t-99.5 106t-36 148.5t36 148t99 105.5
t145 39.5t145 -39.5t99 -105.5t36 -148t-36 -148.5t-99 -106t-145 -39.5zM477 847h80l-73 144h-100zM321 847h80l-73 144h-99z" />
    <glyph glyph-name="uni020D" unicode="&#x20d;" horiz-adv-x="654" 
d="M328 -12q76 0 139 36t100.5 100t37.5 146q0 81 -36.5 144.5t-99.5 100t-141 36.5q-79 0 -142 -36.5t-99.5 -100t-36.5 -144.5t37 -145t100 -100.5t141 -36.5zM328 78q-51 0 -91.5 25t-64.5 68.5t-24 98.5t24 98t64.5 68t91.5 25q50 0 90.5 -25t64 -68t23.5 -98
t-23.5 -98.5t-64 -68.5t-90.5 -25zM365 640h80l-73 144h-100zM209 640h80l-73 144h-99z" />
    <glyph glyph-name="uni020E" unicode="&#x20e;" horiz-adv-x="878" 
d="M439 -12q80 0 148.5 28.5t120.5 80.5t81 122t29 154q0 83 -29 153.5t-81 122t-120.5 80t-148.5 28.5q-79 0 -148 -28.5t-120.5 -80t-80.5 -121.5t-29 -154t29 -154t81 -122t120.5 -80.5t147.5 -28.5zM439 79q-81 0 -144.5 39.5t-99.5 106t-36 148.5t36 148t99 105.5
t145 39.5t145 -39.5t99 -105.5t36 -148t-36 -148.5t-99 -106t-145 -39.5zM294 847h71q0 30 21.5 52t52.5 22t53 -22t22 -52h70q0 38 -19.5 69.5t-52.5 50.5t-73 19t-73 -19t-52.5 -50.5t-19.5 -69.5z" />
    <glyph glyph-name="uni020F" unicode="&#x20f;" horiz-adv-x="654" 
d="M328 -12q76 0 139 36t100.5 100t37.5 146q0 81 -36.5 144.5t-99.5 100t-141 36.5q-79 0 -142 -36.5t-99.5 -100t-36.5 -144.5t37 -145t100 -100.5t141 -36.5zM328 78q-51 0 -91.5 25t-64.5 68.5t-24 98.5t24 98t64.5 68t91.5 25q50 0 90.5 -25t64 -68t23.5 -98
t-23.5 -98.5t-64 -68.5t-90.5 -25zM182 640h71q0 30 21.5 52t52.5 22t53 -22t22 -52h70q0 38 -19.5 69.5t-52.5 50.5t-73 19t-73 -19t-52.5 -50.5t-19.5 -69.5z" />
    <glyph glyph-name="uni0210" unicode="&#x210;" horiz-adv-x="648" 
d="M83 0h98v285h164l161 -285h114l-173 302q68 23 108 78.5t40 134.5q0 71 -31.5 122.5t-87.5 79.5t-130 28h-263v-745zM181 375v280h168q66 0 106.5 -37.5t40.5 -102.5q0 -64 -40.5 -102t-106.5 -38h-168zM358 847h80l-73 144h-100zM202 847h80l-73 144h-99z" />
    <glyph glyph-name="uni0211" unicode="&#x211;" horiz-adv-x="350" 
d="M72 0h93v321q0 65 35 100.5t92 35.5h47v88h-33q-50 0 -86 -17.5t-57 -52.5v64h-91v-539zM243 640h80l-73 144h-100zM87 640h80l-73 144h-99z" />
    <glyph glyph-name="uni0212" unicode="&#x212;" horiz-adv-x="648" 
d="M83 0h98v285h164l161 -285h114l-173 302q68 23 108 78.5t40 134.5q0 71 -31.5 122.5t-87.5 79.5t-130 28h-263v-745zM181 375v280h168q66 0 106.5 -37.5t40.5 -102.5q0 -64 -40.5 -102t-106.5 -38h-168zM175 847h71q0 30 21.5 52t52.5 22t53 -22t22 -52h70
q0 38 -19.5 69.5t-52.5 50.5t-73 19t-73 -19t-52.5 -50.5t-19.5 -69.5z" />
    <glyph glyph-name="uni0213" unicode="&#x213;" horiz-adv-x="350" 
d="M72 0h93v321q0 65 35 100.5t92 35.5h47v88h-33q-50 0 -86 -17.5t-57 -52.5v64h-91v-539zM60 640h71q0 30 21.5 52t52.5 22t53 -22t22 -52h70q0 38 -19.5 69.5t-52.5 50.5t-73 19t-73 -19t-52.5 -50.5t-19.5 -69.5z" />
    <glyph glyph-name="uni0214" unicode="&#x214;" horiz-adv-x="706" 
d="M353 -12q82 0 143.5 34t96.5 93.5t35 135.5v494h-99v-492q0 -51 -22.5 -90.5t-62 -61.5t-91.5 -22t-91.5 22t-62 61.5t-22.5 90.5v492h-99v-494q0 -76 35 -135.5t97 -93.5t143 -34zM391 847h80l-73 144h-100zM235 847h80l-73 144h-99z" />
    <glyph glyph-name="uni0215" unicode="&#x215;" 
d="M263 -12q50 0 90 20.5t64 57.5v-66h91v539h-94v-319q0 -66 -36.5 -104t-93.5 -38q-58 0 -94 36.5t-36 97.5v327h-93v-337q0 -63 26 -111.5t71.5 -75.5t104.5 -27zM328 640h80l-73 144h-100zM172 640h80l-73 144h-99z" />
    <glyph glyph-name="uni0216" unicode="&#x216;" horiz-adv-x="706" 
d="M353 -12q82 0 143.5 34t96.5 93.5t35 135.5v494h-99v-492q0 -51 -22.5 -90.5t-62 -61.5t-91.5 -22t-91.5 22t-62 61.5t-22.5 90.5v492h-99v-494q0 -76 35 -135.5t97 -93.5t143 -34zM208 847h71q0 30 21.5 52t52.5 22t53 -22t22 -52h70q0 38 -19.5 69.5t-52.5 50.5t-73 19
t-73 -19t-52.5 -50.5t-19.5 -69.5z" />
    <glyph glyph-name="uni0217" unicode="&#x217;" 
d="M263 -12q50 0 90 20.5t64 57.5v-66h91v539h-94v-319q0 -66 -36.5 -104t-93.5 -38q-58 0 -94 36.5t-36 97.5v327h-93v-337q0 -63 26 -111.5t71.5 -75.5t104.5 -27zM145 640h71q0 30 21.5 52t52.5 22t53 -22t22 -52h70q0 38 -19.5 69.5t-52.5 50.5t-73 19t-73 -19
t-52.5 -50.5t-19.5 -69.5z" />
    <glyph glyph-name="uni0218" unicode="&#x218;" horiz-adv-x="646" 
d="M339 -12q73 0 128.5 26.5t87 73.5t31.5 108q0 146 -178 201l-125 37q-53 17 -79 49.5t-26 72.5q0 52 37 82.5t97 30.5q65 0 113.5 -33t71.5 -95l84 35q-17 51 -55.5 92t-93 65t-121.5 24t-119.5 -26.5t-82 -73t-29.5 -107.5q0 -70 43 -124t124 -79l137 -42q50 -15 77 -42
t27 -74q0 -52 -40.5 -82.5t-106.5 -30.5q-72 0 -126 38.5t-80 110.5l-85 -35q18 -57 59 -102.5t100 -72.5t130 -27zM265 -339q117 27 117 174v85h-97v-120h49q-6 -80 -69 -97v-42z" />
    <glyph glyph-name="uni0219" unicode="&#x219;" horiz-adv-x="511" 
d="M265 -12q58 0 102 20t69 55.5t25 81.5q0 56 -37 96t-102 59l-88 26q-16 5 -33 12.5t-29 22t-12 37.5q0 32 24.5 52t64.5 20q44 0 80.5 -24.5t54.5 -66.5l76 35q-24 65 -80.5 101t-127.5 36q-53 0 -95.5 -20t-67 -55.5t-24.5 -83.5q0 -52 33.5 -91.5t106.5 -59.5l81 -23
q17 -4 35.5 -12.5t32 -23t13.5 -38.5q0 -34 -29 -55t-73 -21q-49 0 -89 27.5t-63 76.5l-74 -36q25 -68 85 -108t141 -40zM198 -339q117 27 117 174v85h-97v-120h49q-6 -80 -69 -97v-42z" />
    <glyph glyph-name="uni021A" unicode="&#x21a;" horiz-adv-x="522" 
d="M213 0h99v655h199v90h-500v-90h202v-655zM203 -339q117 27 117 174v85h-97v-120h49q-6 -80 -69 -97v-42z" />
    <glyph glyph-name="uni021B" unicode="&#x21b;" horiz-adv-x="396" 
d="M291 -6q11 0 27 1t29 4v83q-9 -1 -19 -2t-18 -1q-49 0 -69.5 24.5t-20.5 65.5v281h121v89h-121v124h-93v-44q0 -37 -21 -58.5t-57 -21.5h-20v-89h98v-284q0 -82 42.5 -127t121.5 -45zM225 -339q117 27 117 174v85h-97v-120h49q-6 -80 -69 -97v-42z" />
    <glyph glyph-name="uni022A" unicode="&#x22a;" horiz-adv-x="878" 
d="M439 -12q80 0 148.5 28.5t120.5 80.5t81 122t29 154q0 83 -29 153.5t-81 122t-120.5 80t-148.5 28.5q-79 0 -148 -28.5t-120.5 -80t-80.5 -121.5t-29 -154t29 -154t81 -122t120.5 -80.5t147.5 -28.5zM439 79q-81 0 -144.5 39.5t-99.5 106t-36 148.5t36 148t99 105.5
t145 39.5t145 -39.5t99 -105.5t36 -148t-36 -148.5t-99 -106t-145 -39.5zM311 1017h259v72h-259v-72zM353 862q26 0 44 18t18 45q0 26 -18 44t-44 18q-27 0 -45 -18t-18 -44t18 -44.5t45 -18.5zM528 862q26 0 44 18t18 45q0 26 -18 44t-44 18q-27 0 -45 -18t-18 -44
t18 -44.5t45 -18.5z" />
    <glyph glyph-name="uni022B" unicode="&#x22b;" horiz-adv-x="654" 
d="M328 -12q76 0 139 36t100.5 100t37.5 146q0 81 -36.5 144.5t-99.5 100t-141 36.5q-79 0 -142 -36.5t-99.5 -100t-36.5 -144.5t37 -145t100 -100.5t141 -36.5zM328 78q-51 0 -91.5 25t-64.5 68.5t-24 98.5t24 98t64.5 68t91.5 25q50 0 90.5 -25t64 -68t23.5 -98
t-23.5 -98.5t-64 -68.5t-90.5 -25zM199 810h259v72h-259v-72zM241 655q26 0 44 18t18 45q0 26 -18 44t-44 18q-27 0 -45 -18t-18 -44t18 -44.5t45 -18.5zM416 655q26 0 44 18t18 45q0 26 -18 44t-44 18q-27 0 -45 -18t-18 -44t18 -44.5t45 -18.5z" />
    <glyph glyph-name="uni022C" unicode="&#x22c;" horiz-adv-x="878" 
d="M439 -12q80 0 148.5 28.5t120.5 80.5t81 122t29 154q0 83 -29 153.5t-81 122t-120.5 80t-148.5 28.5q-79 0 -148 -28.5t-120.5 -80t-80.5 -121.5t-29 -154t29 -154t81 -122t120.5 -80.5t147.5 -28.5zM439 79q-81 0 -144.5 39.5t-99.5 106t-36 148.5t36 148t99 105.5
t145 39.5t145 -39.5t99 -105.5t36 -148t-36 -148.5t-99 -106t-145 -39.5zM311 1042h259v72h-259v-72zM505 878q38 0 60 27.5t23 80.5h-64q-1 -17 -9 -29t-23 -12q-18 0 -32 11.5t-32 23t-48 11.5q-37 0 -61 -27.5t-25 -81.5h63q5 42 33 42q19 0 33 -11.5t32.5 -23
t49.5 -11.5z" />
    <glyph glyph-name="uni022D" unicode="&#x22d;" horiz-adv-x="654" 
d="M328 -12q76 0 139 36t100.5 100t37.5 146q0 81 -36.5 144.5t-99.5 100t-141 36.5q-79 0 -142 -36.5t-99.5 -100t-36.5 -144.5t37 -145t100 -100.5t141 -36.5zM328 78q-51 0 -91.5 25t-64.5 68.5t-24 98.5t24 98t64.5 68t91.5 25q50 0 90.5 -25t64 -68t23.5 -98
t-23.5 -98.5t-64 -68.5t-90.5 -25zM200 835h259v72h-259v-72zM394 671q38 0 60 27.5t23 80.5h-64q-1 -17 -9 -29t-23 -12q-18 0 -32 11.5t-32 23t-48 11.5q-37 0 -61 -27.5t-25 -81.5h63q5 42 33 42q19 0 33 -11.5t32.5 -23t49.5 -11.5z" />
    <glyph glyph-name="uni0230" unicode="&#x230;" horiz-adv-x="878" 
d="M439 -12q80 0 148.5 28.5t120.5 80.5t81 122t29 154q0 83 -29 153.5t-81 122t-120.5 80t-148.5 28.5q-79 0 -148 -28.5t-120.5 -80t-80.5 -121.5t-29 -154t29 -154t81 -122t120.5 -80.5t147.5 -28.5zM439 79q-81 0 -144.5 39.5t-99.5 106t-36 148.5t36 148t99 105.5
t145 39.5t145 -39.5t99 -105.5t36 -148t-36 -148.5t-99 -106t-145 -39.5zM310 1017h259v72h-259v-72zM440 862q26 0 44 18t18 45q0 26 -18 44t-44 18t-44.5 -18t-18.5 -44t18.5 -44.5t44.5 -18.5z" />
    <glyph glyph-name="uni0231" unicode="&#x231;" horiz-adv-x="654" 
d="M328 -12q76 0 139 36t100.5 100t37.5 146q0 81 -36.5 144.5t-99.5 100t-141 36.5q-79 0 -142 -36.5t-99.5 -100t-36.5 -144.5t37 -145t100 -100.5t141 -36.5zM328 78q-51 0 -91.5 25t-64.5 68.5t-24 98.5t24 98t64.5 68t91.5 25q50 0 90.5 -25t64 -68t23.5 -98
t-23.5 -98.5t-64 -68.5t-90.5 -25zM198 810h259v72h-259v-72zM328 655q26 0 44 18t18 45q0 26 -18 44t-44 18t-44.5 -18t-18.5 -44t18.5 -44.5t44.5 -18.5z" />
    <glyph glyph-name="uni0232" unicode="&#x232;" horiz-adv-x="635" 
d="M269 0h99v341l256 404h-111l-195 -308l-196 308h-111l258 -404v-341zM185 873h267v73h-267v-73z" />
    <glyph glyph-name="uni0233" unicode="&#x233;" horiz-adv-x="553" 
d="M101 -220q53 0 90.5 21t64 56.5t43.5 78.5l243 603h-103l-163 -421l-164 421h-101l214 -540l-16 -39q-22 -50 -46.5 -71t-71.5 -21q-16 0 -32.5 2.5t-27.5 4.5v-83q16 -7 34 -9.5t36 -2.5zM143 666h267v73h-267v-73z" />
    <glyph glyph-name="uni0237" unicode="&#x237;" horiz-adv-x="237" 
d="M-20 -220q53 0 94.5 20.5t66 60t24.5 97.5v581h-93v-581q0 -47 -27 -70t-68 -23q-20 0 -40 3v-84q8 -2 21 -3t22 -1z" />
    <glyph glyph-name="uni0259" unicode="&#x259;" horiz-adv-x="614" 
d="M302 -12q75 0 134.5 36.5t94 99.5t34.5 144t-35.5 145t-96.5 101t-139 37q-82 0 -143.5 -39t-86.5 -95l78 -40q23 38 60.5 63.5t90.5 25.5q45 0 83.5 -20.5t63 -58.5t26.5 -90h-412q-2 -12 -3 -25.5t-1 -24.5q0 -67 30 -126t86.5 -96t135.5 -37zM302 71q-41 0 -75 18.5
t-54.5 51.5t-22.5 76h314q-10 -68 -56 -107t-106 -39z" />
    <glyph glyph-name="uni02BB" unicode="&#x2bb;" horiz-adv-x="337" 
d="M227 757q-117 -27 -117 -174v-85h97v120h-49q6 80 69 97v42z" />
    <glyph glyph-name="uni02BC" unicode="&#x2bc;" horiz-adv-x="312" 
d="M124 505h65l13 240h-92z" />
    <glyph glyph-name="uni02BE" unicode="&#x2be;" horiz-adv-x="343" 
d="M110 588q53 0 88 35t35 86q0 52 -35 87t-88 35v-59q27 0 45 -17.5t18 -45.5q0 -27 -18 -44.5t-45 -17.5v-59z" />
    <glyph glyph-name="uni02BF" unicode="&#x2bf;" horiz-adv-x="343" 
d="M233 588v59q-27 0 -45 17.5t-18 44.5q0 28 18 45.5t45 17.5v59q-52 0 -87.5 -35t-35.5 -87q0 -51 35.5 -86t87.5 -35z" />
    <glyph glyph-name="circumflex" unicode="&#x2c6;" horiz-adv-x="544" 
d="M110 640h86l76 94l78 -94h85l-116 144h-95z" />
    <glyph glyph-name="caron" unicode="&#x2c7;" horiz-adv-x="544" 
d="M224 640h95l116 144h-85l-78 -94l-76 94h-86z" />
    <glyph glyph-name="uni02C8" unicode="&#x2c8;" horiz-adv-x="312" 
d="M110 550h92v195h-92v-195z" />
    <glyph glyph-name="uni02C9" unicode="&#x2c9;" horiz-adv-x="486" 
d="M110 666h267v73h-267v-73z" />
    <glyph glyph-name="uni02CA" unicode="&#x2ca;" horiz-adv-x="392" 
d="M110 640h80l92 144h-99z" />
    <glyph glyph-name="uni02CB" unicode="&#x2cb;" horiz-adv-x="392" 
d="M202 640h80l-73 144h-99z" />
    <glyph glyph-name="uni02CC" unicode="&#x2cc;" horiz-adv-x="312" 
d="M110 -195h92v195h-92v-195z" />
    <glyph glyph-name="breve" unicode="&#x2d8;" horiz-adv-x="510" 
d="M255 640q40 0 73 19t52.5 50.5t19.5 69.5h-70q0 -30 -22 -52t-53 -22t-52.5 22t-21.5 52h-71q0 -37 19.5 -69t52.5 -51t73 -19z" />
    <glyph glyph-name="dotaccent" unicode="&#x2d9;" horiz-adv-x="344" 
d="M173 655q26 0 44 18t18 45q0 26 -18 44t-44 18q-27 0 -45 -18t-18 -44t18 -44.5t45 -18.5z" />
    <glyph glyph-name="ring" unicode="&#x2da;" horiz-adv-x="465" 
d="M233 588q52 0 87 35t35 86q0 52 -35 87t-87 35t-87.5 -35t-35.5 -87q0 -51 35.5 -86t87.5 -35zM232 647q-26 0 -44 17.5t-18 44.5q0 28 18 45.5t44 17.5t44 -17.5t18 -45.5q0 -27 -18 -44.5t-44 -17.5z" />
    <glyph glyph-name="ogonek" unicode="&#x2db;" horiz-adv-x="447" 
d="M224 -192q29 0 57.5 10t55.5 32l-30 48q-18 -12 -37 -20t-39 -8q-25 0 -39.5 12.5t-14.5 34.5q0 25 21 47t67 39v21h-34q-56 -15 -88.5 -47.5t-32.5 -75.5t32.5 -68t81.5 -25z" />
    <glyph glyph-name="tilde" unicode="&#x2dc;" horiz-adv-x="513" 
d="M321 641q38 0 60 27.5t23 80.5h-64q-1 -17 -9 -29t-23 -12q-18 0 -32 11.5t-32 23t-48 11.5q-37 0 -61 -27.5t-25 -81.5h63q5 42 33 42q19 0 33 -11.5t32.5 -23t49.5 -11.5z" />
    <glyph glyph-name="hungarumlaut" unicode="&#x2dd;" horiz-adv-x="547" 
d="M110 640h80l92 144h-99zM265 640h80l93 144h-100z" />
    <glyph glyph-name="gravecomb" unicode="&#x300;" horiz-adv-x="0" 
d="M202 640h80l-73 144h-99z" />
    <glyph glyph-name="acutecomb" unicode="&#x301;" horiz-adv-x="0" 
d="M110 640h80l92 144h-99z" />
    <glyph glyph-name="uni0302" unicode="&#x302;" horiz-adv-x="0" 
d="M110 640h86l76 94l78 -94h85l-116 144h-95z" />
    <glyph glyph-name="tildecomb" unicode="&#x303;" horiz-adv-x="0" 
d="M321 641q38 0 60 27.5t23 80.5h-64q-1 -17 -9 -29t-23 -12q-18 0 -32 11.5t-32 23t-48 11.5q-37 0 -61 -27.5t-25 -81.5h63q5 42 33 42q19 0 33 -11.5t32.5 -23t49.5 -11.5z" />
    <glyph glyph-name="uni0304" unicode="&#x304;" horiz-adv-x="0" 
d="M110 666h267v73h-267v-73z" />
    <glyph glyph-name="uni0306" unicode="&#x306;" horiz-adv-x="0" 
d="M255 640q40 0 73 19t52.5 50.5t19.5 69.5h-70q0 -30 -22 -52t-53 -22t-52.5 22t-21.5 52h-71q0 -37 19.5 -69t52.5 -51t73 -19z" />
    <glyph glyph-name="uni0307" unicode="&#x307;" horiz-adv-x="0" 
d="M173 655q26 0 44 18t18 45q0 26 -18 44t-44 18q-27 0 -45 -18t-18 -44t18 -44.5t45 -18.5z" />
    <glyph glyph-name="uni0308" unicode="&#x308;" horiz-adv-x="0" 
d="M173 655q26 0 44 18t18 45q0 26 -18 44t-44 18q-27 0 -45 -18t-18 -44t18 -44.5t45 -18.5zM348 655q26 0 44 18t18 45q0 26 -18 44t-44 18q-27 0 -45 -18t-18 -44t18 -44.5t45 -18.5z" />
    <glyph glyph-name="hookabovecomb" unicode="&#x309;" horiz-adv-x="0" 
d="M172 590q56 22 82.5 52t26.5 66q0 41 -32 66.5t-84 25.5q-13 0 -28.5 -2t-26.5 -7v-51q18 6 38 6q31 0 46 -14t15 -35q0 -42 -58 -69z" />
    <glyph glyph-name="uni030A" unicode="&#x30a;" horiz-adv-x="0" 
d="M233 588q52 0 87 35t35 86q0 52 -35 87t-87 35t-87.5 -35t-35.5 -87q0 -51 35.5 -86t87.5 -35zM232 647q-26 0 -44 17.5t-18 44.5q0 28 18 45.5t44 17.5t44 -17.5t18 -45.5q0 -27 -18 -44.5t-44 -17.5z" />
    <glyph glyph-name="uni030B" unicode="&#x30b;" horiz-adv-x="0" 
d="M110 640h80l92 144h-99zM265 640h80l93 144h-100z" />
    <glyph glyph-name="uni030C" unicode="&#x30c;" horiz-adv-x="0" 
d="M224 640h95l116 144h-85l-78 -94l-76 94h-86z" />
    <glyph glyph-name="uni030F" unicode="&#x30f;" horiz-adv-x="0" 
d="M358 640h80l-73 144h-100zM202 640h80l-73 144h-99z" />
    <glyph glyph-name="uni0311" unicode="&#x311;" horiz-adv-x="0" 
d="M110 640h71q0 30 21.5 52t52.5 22t53 -22t22 -52h70q0 38 -19.5 69.5t-52.5 50.5t-73 19t-73 -19t-52.5 -50.5t-19.5 -69.5z" />
    <glyph glyph-name="uni0312" unicode="&#x312;" horiz-adv-x="0" 
d="M110 558h97v120h-49q3 33 20.5 56.5t48.5 31.5v41q-58 -13 -87.5 -56t-29.5 -108v-85z" />
    <glyph glyph-name="uni031B" unicode="&#x31b;" horiz-adv-x="0" 
d="M110 642h24q56 0 90.5 28t34.5 87q0 26 -7 46.5t-16 41.5h-87q8 -20 14.5 -39.5t6.5 -39.5q0 -34 -16.5 -43t-33.5 -9h-10v-72z" />
    <glyph glyph-name="dotbelowcomb" unicode="&#x323;" horiz-adv-x="0" 
d="M173 -205q26 0 44 18t18 45q0 26 -18 44t-44 18q-27 0 -45 -18t-18 -44t18 -44.5t45 -18.5z" />
    <glyph glyph-name="uni0324" unicode="&#x324;" horiz-adv-x="0" 
d="M173 -205q26 0 44 18t18 45q0 26 -18 44t-44 18q-27 0 -45 -18t-18 -44t18 -44.5t45 -18.5zM348 -205q26 0 44 18t18 45q0 26 -18 44t-44 18q-27 0 -45 -18t-18 -44t18 -44.5t45 -18.5z" />
    <glyph glyph-name="uni0326" unicode="&#x326;" horiz-adv-x="0" 
d="M110 -339q117 27 117 174v85h-97v-120h49q-6 -80 -69 -97v-42z" />
    <glyph glyph-name="uni0327" unicode="&#x327;" horiz-adv-x="0" 
d="M188 -207q58 0 88.5 27.5t30.5 66.5q0 35 -24 55.5t-59 20.5q-9 0 -19 -2l6 62h-63l-13 -107l21 -9q18 9 40 9q35 0 35 -32q0 -37 -49 -37q-12 0 -29 2.5t-31 7.5l-12 -50q16 -7 38 -10.5t40 -3.5z" />
    <glyph glyph-name="uni0328" unicode="&#x328;" horiz-adv-x="0" 
d="M224 -192q29 0 57.5 10t55.5 32l-30 48q-18 -12 -37 -20t-39 -8q-25 0 -39.5 12.5t-14.5 34.5q0 25 21 47t67 39v21h-34q-56 -15 -88.5 -47.5t-32.5 -75.5t32.5 -68t81.5 -25z" />
    <glyph glyph-name="uni032E" unicode="&#x32e;" horiz-adv-x="0" 
d="M255 -219q40 0 73 19t52.5 50.5t19.5 69.5h-70q0 -30 -22 -52t-53 -22t-52.5 22t-21.5 52h-71q0 -37 19.5 -69t52.5 -51t73 -19z" />
    <glyph glyph-name="uni0331" unicode="&#x331;" horiz-adv-x="0" 
d="M110 -172h267v72h-267v-72z" />
    <glyph glyph-name="uni0394" unicode="&#x394;" horiz-adv-x="609" 
d="M11 0h587v90l-236 655h-116l-235 -655v-90zM115 90l189 541l189 -541h-378z" />
    <glyph glyph-name="uni03A9" unicode="&#x3a9;" horiz-adv-x="878" 
d="M61 0h298v90q-60 18 -105 58.5t-70 98.5t-25 126q0 82 36 148t99 105.5t145 39.5t145 -39.5t99 -105.5t36 -148q0 -68 -25 -126t-70 -98.5t-105 -58.5v-90h299v90h-134q61 48 97.5 121t36.5 162q0 84 -29 154t-81 121.5t-120.5 80t-148.5 28.5q-79 0 -148 -28.5
t-120.5 -80t-80.5 -121.5t-29 -154q0 -89 36 -162t98 -121h-134v-90z" />
    <glyph glyph-name="pi" unicode="&#x3c0;" horiz-adv-x="658" 
d="M127 0h94v450h217v-450h94v450h97v89h-600v-89h98v-450z" />
    <glyph glyph-name="uni0E3F" unicode="&#xe3f;" horiz-adv-x="692" 
d="M83 0h216v-100h75v100h23q114 0 180 59t66 162q0 56 -26.5 103t-79.5 77q76 53 76 149q0 89 -58.5 142t-158.5 53h-22v100h-75v-100h-216v-745zM181 439v217h118v-217h-118zM394 656q54 0 87 -27.5t33 -77.5q0 -49 -33 -80.5t-87 -31.5h-20v217h20zM181 90v261h118v-261
h-118zM401 351q65 0 104 -36t39 -95q0 -60 -39 -95t-104 -35h-27v261h27z" />
    <glyph glyph-name="uni1E08" unicode="&#x1e08;" horiz-adv-x="779" 
d="M426 -12q77 0 138.5 27t104 70t60.5 92l-90 41q-26 -62 -81 -100.5t-132 -38.5q-78 0 -138.5 37t-94.5 103t-34 153q0 88 34 154t94.5 103t138.5 37q77 0 132 -38.5t81 -100.5l90 41q-18 49 -60.5 92t-104 70t-138.5 27q-79 0 -145.5 -28.5t-116 -80.5t-76.5 -122
t-27 -154q0 -83 27 -153.5t76.5 -122t116 -80t145.5 -28.5zM398 -230q58 0 88.5 27.5t30.5 66.5q0 35 -24 55.5t-59 20.5q-9 0 -19 -2l6 62h-63l-13 -107l21 -9q18 9 40 9q35 0 35 -32q0 -37 -49 -37q-12 0 -29 2.5t-31 7.5l-12 -50q16 -7 38 -10.5t40 -3.5zM350 847h80
l92 144h-99z" />
    <glyph glyph-name="uni1E09" unicode="&#x1e09;" horiz-adv-x="603" 
d="M322 -12q53 0 99.5 19t80.5 52t51 74l-83 42q-19 -44 -57.5 -70.5t-90.5 -26.5q-49 0 -88.5 25t-62.5 68.5t-23 97.5q0 56 23 99t62.5 68t88.5 25q51 0 90 -26.5t58 -68.5l83 40q-17 42 -51.5 75t-80.5 51.5t-99 18.5q-79 0 -140.5 -36.5t-96.5 -100t-35 -144.5
q0 -80 35 -144t96.5 -101t140.5 -37zM330 -230q58 0 88.5 27.5t30.5 66.5q0 35 -24 55.5t-59 20.5q-9 0 -19 -2l6 62h-63l-13 -107l21 -9q18 9 40 9q35 0 35 -32q0 -37 -49 -37q-12 0 -29 2.5t-31 7.5l-12 -50q16 -7 38 -10.5t40 -3.5zM282 640h80l92 144h-99z" />
    <glyph glyph-name="uni1E0C" unicode="&#x1e0c;" horiz-adv-x="741" 
d="M83 0h244q113 0 197 47t130 131t46 195q0 112 -46 195.5t-130 130t-197 46.5h-244v-745zM181 90v565h147q82 0 142.5 -34.5t94 -97.5t33.5 -150q0 -86 -33 -150t-93.5 -98.5t-143.5 -34.5h-147zM381 -205q26 0 44 18t18 45q0 26 -18 44t-44 18q-27 0 -45 -18t-18 -44
t18 -44.5t45 -18.5z" />
    <glyph glyph-name="uni1E0D" unicode="&#x1e0d;" horiz-adv-x="669" 
d="M317 -12q60 0 109.5 23.5t79.5 67.5v-79h91v745h-94v-278q-31 40 -79 62t-107 22q-76 0 -136.5 -37t-95.5 -100.5t-35 -144.5q0 -80 35 -143.5t95.5 -100.5t136.5 -37zM325 78q-51 0 -91 25t-63 68.5t-23 97.5q0 55 23 98.5t63.5 68.5t90.5 25q51 0 91 -25.5t63.5 -68.5
t23.5 -98q0 -54 -23.5 -97.5t-63.5 -68.5t-91 -25zM335 -205q26 0 44 18t18 45q0 26 -18 44t-44 18q-27 0 -45 -18t-18 -44t18 -44.5t45 -18.5z" />
    <glyph glyph-name="uni1E0E" unicode="&#x1e0e;" horiz-adv-x="741" 
d="M83 0h244q113 0 197 47t130 131t46 195q0 112 -46 195.5t-130 130t-197 46.5h-244v-745zM181 90v565h147q82 0 142.5 -34.5t94 -97.5t33.5 -150q0 -86 -33 -150t-93.5 -98.5t-143.5 -34.5h-147zM247 -172h267v72h-267v-72z" />
    <glyph glyph-name="uni1E0F" unicode="&#x1e0f;" horiz-adv-x="669" 
d="M317 -12q60 0 109.5 23.5t79.5 67.5v-79h91v745h-94v-278q-31 40 -79 62t-107 22q-76 0 -136.5 -37t-95.5 -100.5t-35 -144.5q0 -80 35 -143.5t95.5 -100.5t136.5 -37zM325 78q-51 0 -91 25t-63 68.5t-23 97.5q0 55 23 98.5t63.5 68.5t90.5 25q51 0 91 -25.5t63.5 -68.5
t23.5 -98q0 -54 -23.5 -97.5t-63.5 -68.5t-91 -25zM202 -172h267v72h-267v-72z" />
    <glyph glyph-name="uni1E14" unicode="&#x1e14;" horiz-adv-x="606" 
d="M83 0h485v90h-387v239h367v90h-367v236h387v90h-485v-745zM291 990h83l-46 94h-97zM192 873h267v73h-267v-73z" />
    <glyph glyph-name="uni1E15" unicode="&#x1e15;" horiz-adv-x="614" 
d="M320 -12q83 0 144 39t86 95l-78 40q-23 -39 -60 -64t-91 -25q-45 0 -83.5 20.5t-63 58.5t-26.5 90h412q5 27 5 50q0 67 -30 126t-86.5 96t-136.5 37q-75 0 -134 -36t-93.5 -99.5t-34.5 -144.5t35 -145t96 -101t139 -37zM312 468q41 0 75 -18.5t55 -51.5t22 -76h-314
q10 68 56 107t106 39zM274 783h83l-46 94h-97zM175 666h267v73h-267v-73z" />
    <glyph glyph-name="uni1E16" unicode="&#x1e16;" horiz-adv-x="606" 
d="M83 0h485v90h-387v239h367v90h-367v236h387v90h-485v-745zM276 990h83l60 94h-96zM192 873h267v73h-267v-73z" />
    <glyph glyph-name="uni1E17" unicode="&#x1e17;" horiz-adv-x="614" 
d="M320 -12q83 0 144 39t86 95l-78 40q-23 -39 -60 -64t-91 -25q-45 0 -83.5 20.5t-63 58.5t-26.5 90h412q5 27 5 50q0 67 -30 126t-86.5 96t-136.5 37q-75 0 -134 -36t-93.5 -99.5t-34.5 -144.5t35 -145t96 -101t139 -37zM312 468q41 0 75 -18.5t55 -51.5t22 -76h-314
q10 68 56 107t106 39zM259 783h83l60 94h-96zM175 666h267v73h-267v-73z" />
    <glyph glyph-name="uni1E1C" unicode="&#x1e1c;" horiz-adv-x="606" 
d="M83 0h485v90h-387v239h367v90h-367v236h387v90h-485v-745zM333 -230q58 0 88.5 27.5t30.5 66.5q0 35 -24 55.5t-59 20.5q-9 0 -19 -2l6 62h-63l-13 -107l21 -9q18 9 40 9q35 0 35 -32q0 -37 -49 -37q-12 0 -29 2.5t-31 7.5l-12 -50q16 -7 38 -10.5t40 -3.5zM325 847
q40 0 73 19t52.5 50.5t19.5 69.5h-70q0 -30 -22 -52t-53 -22t-52.5 22t-21.5 52h-71q0 -37 19.5 -69t52.5 -51t73 -19z" />
    <glyph glyph-name="uni1E1D" unicode="&#x1e1d;" horiz-adv-x="614" 
d="M320 -12q83 0 144 39t86 95l-78 40q-23 -39 -60 -64t-91 -25q-45 0 -83.5 20.5t-63 58.5t-26.5 90h412q5 27 5 50q0 67 -30 126t-86.5 96t-136.5 37q-75 0 -134 -36t-93.5 -99.5t-34.5 -144.5t35 -145t96 -101t139 -37zM312 468q41 0 75 -18.5t55 -51.5t22 -76h-314
q10 68 56 107t106 39zM316 -230q58 0 88.5 27.5t30.5 66.5q0 35 -24 55.5t-59 20.5q-9 0 -19 -2l6 62h-63l-13 -107l21 -9q18 9 40 9q35 0 35 -32q0 -37 -49 -37q-12 0 -29 2.5t-31 7.5l-12 -50q16 -7 38 -10.5t40 -3.5zM307 640q40 0 73 19t52.5 50.5t19.5 69.5h-70
q0 -30 -22 -52t-53 -22t-52.5 22t-21.5 52h-71q0 -37 19.5 -69t52.5 -51t73 -19z" />
    <glyph glyph-name="uni1E20" unicode="&#x1e20;" horiz-adv-x="817" 
d="M427 -12q69 0 131 24t109 69t74 107.5t27 140.5v66h-342v-85h243v-4q0 -67 -32.5 -118t-87 -80t-122.5 -29q-78 0 -138.5 37t-95 103t-34.5 153q0 88 34 154t94.5 103t138.5 37t134 -38t81 -103l88 43q-18 49 -60.5 92t-104 70t-138.5 27q-79 0 -145.5 -28.5t-116 -80.5
t-76.5 -122t-27 -154q0 -83 27.5 -153.5t76.5 -122t116 -80t146 -28.5zM276 873h267v73h-267v-73z" />
    <glyph glyph-name="uni1E21" unicode="&#x1e21;" horiz-adv-x="659" 
d="M329 -220q75 0 133.5 31.5t91.5 86.5t33 125v516h-91v-75q-32 41 -79 64t-104 23q-76 0 -135.5 -35.5t-93.5 -96.5t-34 -137t34.5 -137t94 -96.5t135.5 -35.5q55 0 102 22t77 63v-75q0 -49 -22.5 -83.5t-59.5 -52t-83 -17.5q-60 0 -99.5 26.5t-53.5 64.5l-87 -40
q27 -63 91 -102t150 -39zM322 103q-50 0 -89.5 24t-62 64.5t-22.5 90.5t23 90.5t62.5 64.5t88.5 24q48 0 87 -24t61.5 -64.5t22.5 -90.5q0 -49 -22.5 -90t-61.5 -65t-87 -24zM196 666h267v73h-267v-73z" />
    <glyph glyph-name="uni1E24" unicode="&#x1e24;" horiz-adv-x="735" 
d="M83 0h98v323h373v-323h99v745h-99v-332h-373v332h-98v-745zM368 -205q26 0 44 18t18 45q0 26 -18 44t-44 18q-27 0 -45 -18t-18 -44t18 -44.5t45 -18.5z" />
    <glyph glyph-name="uni1E25" unicode="&#x1e25;" 
d="M72 0h93v319q0 66 37.5 104t93.5 38t92.5 -37.5t36.5 -104.5v-319h94v349q0 58 -26.5 103.5t-72 72t-103.5 26.5q-49 0 -88.5 -19.5t-63.5 -55.5v272h-93v-748zM291 -205q26 0 44 18t18 45q0 26 -18 44t-44 18q-27 0 -45 -18t-18 -44t18 -44.5t45 -18.5z" />
    <glyph glyph-name="uni1E2A" unicode="&#x1e2a;" horiz-adv-x="735" 
d="M83 0h98v323h373v-323h99v745h-99v-332h-373v332h-98v-745zM367 -219q40 0 73 19t52.5 50.5t19.5 69.5h-70q0 -30 -22 -52t-53 -22t-52.5 22t-21.5 52h-71q0 -37 19.5 -69t52.5 -51t73 -19z" />
    <glyph glyph-name="uni1E2B" unicode="&#x1e2b;" 
d="M72 0h93v319q0 66 37.5 104t93.5 38t92.5 -37.5t36.5 -104.5v-319h94v349q0 58 -26.5 103.5t-72 72t-103.5 26.5q-49 0 -88.5 -19.5t-63.5 -55.5v272h-93v-748zM290 -219q40 0 73 19t52.5 50.5t19.5 69.5h-70q0 -30 -22 -52t-53 -22t-52.5 22t-21.5 52h-71
q0 -37 19.5 -69t52.5 -51t73 -19z" />
    <glyph glyph-name="uni1E2E" unicode="&#x1e2e;" horiz-adv-x="264" 
d="M83 0h98v745h-98v-745zM94 1017h77l58 91h-89zM221 862q26 0 44 18t18 45q0 26 -18 44t-44 18q-27 0 -45 -18t-18 -44t18 -44.5t45 -18.5zM46 862q26 0 44 18t18 45q0 26 -18 44t-44 18q-27 0 -45 -18t-18 -44t18 -44.5t45 -18.5z" />
    <glyph glyph-name="uni1E2F" unicode="&#x1e2f;" horiz-adv-x="209" 
d="M58 0h93v539h-93v-539zM66 810h77l58 91h-89zM193 655q26 0 44 18t18 45q0 26 -18 44t-44 18q-27 0 -45 -18t-18 -44t18 -44.5t45 -18.5zM18 655q26 0 44 18t18 45q0 26 -18 44t-44 18q-27 0 -45 -18t-18 -44t18 -44.5t45 -18.5z" />
    <glyph glyph-name="uni1E36" unicode="&#x1e36;" horiz-adv-x="535" 
d="M83 0h425v90h-327v655h-98v-745zM296 -205q26 0 44 18t18 45q0 26 -18 44t-44 18q-27 0 -45 -18t-18 -44t18 -44.5t45 -18.5z" />
    <glyph glyph-name="uni1E37" unicode="&#x1e37;" horiz-adv-x="237" 
d="M72 0h93v745h-93v-745zM119 -205q26 0 44 18t18 45q0 26 -18 44t-44 18q-27 0 -45 -18t-18 -44t18 -44.5t45 -18.5z" />
    <glyph glyph-name="uni1E3A" unicode="&#x1e3a;" horiz-adv-x="535" 
d="M83 0h425v90h-327v655h-98v-745zM162 -172h267v72h-267v-72z" />
    <glyph glyph-name="uni1E3B" unicode="&#x1e3b;" horiz-adv-x="237" 
d="M72 0h93v745h-93v-745zM-14 -172h267v72h-267v-72z" />
    <glyph glyph-name="uni1E42" unicode="&#x1e42;" horiz-adv-x="855" 
d="M83 0h98v566l243 -346h8l242 341v-561h99v745h-90l-254 -364l-256 364h-90v-745zM428 -205q26 0 44 18t18 45q0 26 -18 44t-44 18q-27 0 -45 -18t-18 -44t18 -44.5t45 -18.5z" />
    <glyph glyph-name="uni1E43" unicode="&#x1e43;" horiz-adv-x="913" 
d="M72 0h93v319q0 66 36 104t90 38q55 0 89.5 -37.5t34.5 -104.5v-319h94v319q0 66 35.5 104t90.5 38q54 0 89 -37.5t35 -104.5v-319h94v349q0 58 -27 103.5t-72.5 72t-101.5 26.5q-54 0 -98.5 -25t-70.5 -73q-24 45 -69.5 71.5t-100.5 26.5q-48 0 -87.5 -20.5t-62.5 -58.5
v67h-91v-539zM457 -205q26 0 44 18t18 45q0 26 -18 44t-44 18q-27 0 -45 -18t-18 -44t18 -44.5t45 -18.5z" />
    <glyph glyph-name="uni1E44" unicode="&#x1e44;" horiz-adv-x="738" 
d="M83 0h98v558l392 -558h82v745h-99v-550l-391 550h-82v-745zM369 862q26 0 44 18t18 45q0 26 -18 44t-44 18q-27 0 -45 -18t-18 -44t18 -44.5t45 -18.5z" />
    <glyph glyph-name="uni1E45" unicode="&#x1e45;" 
d="M72 0h93v319q0 66 37 104t94 38t93 -37.5t36 -104.5v-319h94v349q0 58 -26.5 103.5t-72 72t-103.5 26.5q-50 0 -90 -20.5t-64 -57.5v66h-91v-539zM291 655q26 0 44 18t18 45q0 26 -18 44t-44 18q-27 0 -45 -18t-18 -44t18 -44.5t45 -18.5z" />
    <glyph glyph-name="uni1E46" unicode="&#x1e46;" horiz-adv-x="738" 
d="M83 0h98v558l392 -558h82v745h-99v-550l-391 550h-82v-745zM369 -205q26 0 44 18t18 45q0 26 -18 44t-44 18q-27 0 -45 -18t-18 -44t18 -44.5t45 -18.5z" />
    <glyph glyph-name="uni1E47" unicode="&#x1e47;" 
d="M72 0h93v319q0 66 37 104t94 38t93 -37.5t36 -104.5v-319h94v349q0 58 -26.5 103.5t-72 72t-103.5 26.5q-50 0 -90 -20.5t-64 -57.5v66h-91v-539zM291 -205q26 0 44 18t18 45q0 26 -18 44t-44 18q-27 0 -45 -18t-18 -44t18 -44.5t45 -18.5z" />
    <glyph glyph-name="uni1E48" unicode="&#x1e48;" horiz-adv-x="738" 
d="M83 0h98v558l392 -558h82v745h-99v-550l-391 550h-82v-745zM236 -172h267v72h-267v-72z" />
    <glyph glyph-name="uni1E49" unicode="&#x1e49;" 
d="M72 0h93v319q0 66 37 104t94 38t93 -37.5t36 -104.5v-319h94v349q0 58 -26.5 103.5t-72 72t-103.5 26.5q-50 0 -90 -20.5t-64 -57.5v66h-91v-539zM157 -172h267v72h-267v-72z" />
    <glyph glyph-name="uni1E4C" unicode="&#x1e4c;" horiz-adv-x="878" 
d="M439 -12q80 0 148.5 28.5t120.5 80.5t81 122t29 154q0 83 -29 153.5t-81 122t-120.5 80t-148.5 28.5q-79 0 -148 -28.5t-120.5 -80t-80.5 -121.5t-29 -154t29 -154t81 -122t120.5 -80.5t147.5 -28.5zM439 79q-81 0 -144.5 39.5t-99.5 106t-36 148.5t36 148t99 105.5
t145 39.5t145 -39.5t99 -105.5t36 -148t-36 -148.5t-99 -106t-145 -39.5zM408 1017h82l61 94h-97zM504 878q38 0 60 27.5t23 80.5h-64q-1 -17 -9 -29t-23 -12q-18 0 -32 11.5t-32 23t-48 11.5q-37 0 -61 -27.5t-25 -81.5h63q5 42 33 42q19 0 33 -11.5t32.5 -23t49.5 -11.5z
" />
    <glyph glyph-name="uni1E4D" unicode="&#x1e4d;" horiz-adv-x="654" 
d="M328 -12q76 0 139 36t100.5 100t37.5 146q0 81 -36.5 144.5t-99.5 100t-141 36.5q-79 0 -142 -36.5t-99.5 -100t-36.5 -144.5t37 -145t100 -100.5t141 -36.5zM328 78q-51 0 -91.5 25t-64.5 68.5t-24 98.5t24 98t64.5 68t91.5 25q50 0 90.5 -25t64 -68t23.5 -98
t-23.5 -98.5t-64 -68.5t-90.5 -25zM296 810h82l61 94h-97zM392 671q38 0 60 27.5t23 80.5h-64q-1 -17 -9 -29t-23 -12q-18 0 -32 11.5t-32 23t-48 11.5q-37 0 -61 -27.5t-25 -81.5h63q5 42 33 42q19 0 33 -11.5t32.5 -23t49.5 -11.5z" />
    <glyph glyph-name="uni1E4E" unicode="&#x1e4e;" horiz-adv-x="878" 
d="M439 -12q80 0 148.5 28.5t120.5 80.5t81 122t29 154q0 83 -29 153.5t-81 122t-120.5 80t-148.5 28.5q-79 0 -148 -28.5t-120.5 -80t-80.5 -121.5t-29 -154t29 -154t81 -122t120.5 -80.5t147.5 -28.5zM439 79q-81 0 -144.5 39.5t-99.5 106t-36 148.5t36 148t99 105.5
t145 39.5t145 -39.5t99 -105.5t36 -148t-36 -148.5t-99 -106t-145 -39.5zM353 1025q26 0 44 18t18 45q0 26 -18 44t-44 18q-27 0 -45 -18t-18 -44q0 -27 18 -45t45 -18zM528 1025q26 0 44 18t18 45q0 26 -18 44t-44 18q-27 0 -45 -18t-18 -44q0 -27 18 -45t45 -18zM504 878
q37 0 59 27.5t23 80.5h-63q-1 -17 -9 -29t-24 -12q-18 0 -31.5 11.5t-31.5 23t-48 11.5q-37 0 -61 -27.5t-26 -81.5h64q5 42 33 42q18 0 32 -11.5t33 -23t50 -11.5z" />
    <glyph glyph-name="uni1E4F" unicode="&#x1e4f;" horiz-adv-x="654" 
d="M328 -12q76 0 139 36t100.5 100t37.5 146q0 81 -36.5 144.5t-99.5 100t-141 36.5q-79 0 -142 -36.5t-99.5 -100t-36.5 -144.5t37 -145t100 -100.5t141 -36.5zM328 78q-51 0 -91.5 25t-64.5 68.5t-24 98.5t24 98t64.5 68t91.5 25q50 0 90.5 -25t64 -68t23.5 -98
t-23.5 -98.5t-64 -68.5t-90.5 -25zM241 818q26 0 44 18t18 45q0 26 -18 44t-44 18q-27 0 -45 -18t-18 -44q0 -27 18 -45t45 -18zM416 818q26 0 44 18t18 45q0 26 -18 44t-44 18q-27 0 -45 -18t-18 -44q0 -27 18 -45t45 -18zM392 671q37 0 59 27.5t23 80.5h-63q-1 -17 -9 -29
t-24 -12q-18 0 -31.5 11.5t-31.5 23t-48 11.5q-37 0 -61 -27.5t-26 -81.5h64q5 42 33 42q18 0 32 -11.5t33 -23t50 -11.5z" />
    <glyph glyph-name="uni1E50" unicode="&#x1e50;" horiz-adv-x="878" 
d="M439 -12q80 0 148.5 28.5t120.5 80.5t81 122t29 154q0 83 -29 153.5t-81 122t-120.5 80t-148.5 28.5q-79 0 -148 -28.5t-120.5 -80t-80.5 -121.5t-29 -154t29 -154t81 -122t120.5 -80.5t147.5 -28.5zM439 79q-81 0 -144.5 39.5t-99.5 106t-36 148.5t36 148t99 105.5
t145 39.5t145 -39.5t99 -105.5t36 -148t-36 -148.5t-99 -106t-145 -39.5zM405 990h83l-46 94h-97zM306 873h267v73h-267v-73z" />
    <glyph glyph-name="uni1E51" unicode="&#x1e51;" horiz-adv-x="654" 
d="M328 -12q76 0 139 36t100.5 100t37.5 146q0 81 -36.5 144.5t-99.5 100t-141 36.5q-79 0 -142 -36.5t-99.5 -100t-36.5 -144.5t37 -145t100 -100.5t141 -36.5zM328 78q-51 0 -91.5 25t-64.5 68.5t-24 98.5t24 98t64.5 68t91.5 25q50 0 90.5 -25t64 -68t23.5 -98
t-23.5 -98.5t-64 -68.5t-90.5 -25zM294 783h83l-46 94h-97zM195 666h267v73h-267v-73z" />
    <glyph glyph-name="uni1E52" unicode="&#x1e52;" horiz-adv-x="878" 
d="M439 -12q80 0 148.5 28.5t120.5 80.5t81 122t29 154q0 83 -29 153.5t-81 122t-120.5 80t-148.5 28.5q-79 0 -148 -28.5t-120.5 -80t-80.5 -121.5t-29 -154t29 -154t81 -122t120.5 -80.5t147.5 -28.5zM439 79q-81 0 -144.5 39.5t-99.5 106t-36 148.5t36 148t99 105.5
t145 39.5t145 -39.5t99 -105.5t36 -148t-36 -148.5t-99 -106t-145 -39.5zM390 990h83l60 94h-96zM306 873h267v73h-267v-73z" />
    <glyph glyph-name="uni1E53" unicode="&#x1e53;" horiz-adv-x="654" 
d="M328 -12q76 0 139 36t100.5 100t37.5 146q0 81 -36.5 144.5t-99.5 100t-141 36.5q-79 0 -142 -36.5t-99.5 -100t-36.5 -144.5t37 -145t100 -100.5t141 -36.5zM328 78q-51 0 -91.5 25t-64.5 68.5t-24 98.5t24 98t64.5 68t91.5 25q50 0 90.5 -25t64 -68t23.5 -98
t-23.5 -98.5t-64 -68.5t-90.5 -25zM279 783h83l60 94h-96zM195 666h267v73h-267v-73z" />
    <glyph glyph-name="uni1E5A" unicode="&#x1e5a;" horiz-adv-x="648" 
d="M83 0h98v285h164l161 -285h114l-173 302q68 23 108 78.5t40 134.5q0 71 -31.5 122.5t-87.5 79.5t-130 28h-263v-745zM181 375v280h168q66 0 106.5 -37.5t40.5 -102.5q0 -64 -40.5 -102t-106.5 -38h-168zM320 -205q26 0 44 18t18 45q0 26 -18 44t-44 18q-27 0 -45 -18
t-18 -44t18 -44.5t45 -18.5z" />
    <glyph glyph-name="uni1E5B" unicode="&#x1e5b;" horiz-adv-x="350" 
d="M72 0h93v321q0 65 35 100.5t92 35.5h47v88h-33q-50 0 -86 -17.5t-57 -52.5v64h-91v-539zM119 -205q26 0 44 18t18 45q0 26 -18 44t-44 18q-27 0 -45 -18t-18 -44t18 -44.5t45 -18.5z" />
    <glyph glyph-name="uni1E5E" unicode="&#x1e5e;" horiz-adv-x="648" 
d="M83 0h98v285h164l161 -285h114l-173 302q68 23 108 78.5t40 134.5q0 71 -31.5 122.5t-87.5 79.5t-130 28h-263v-745zM181 375v280h168q66 0 106.5 -37.5t40.5 -102.5q0 -64 -40.5 -102t-106.5 -38h-168zM187 -172h267v72h-267v-72z" />
    <glyph glyph-name="uni1E5F" unicode="&#x1e5f;" horiz-adv-x="350" 
d="M72 0h93v321q0 65 35 100.5t92 35.5h47v88h-33q-50 0 -86 -17.5t-57 -52.5v64h-91v-539zM-14 -172h267v72h-267v-72z" />
    <glyph glyph-name="uni1E60" unicode="&#x1e60;" horiz-adv-x="646" 
d="M339 -12q73 0 128.5 26.5t87 73.5t31.5 108q0 146 -178 201l-125 37q-53 17 -79 49.5t-26 72.5q0 52 37 82.5t97 30.5q65 0 113.5 -33t71.5 -95l84 35q-17 51 -55.5 92t-93 65t-121.5 24t-119.5 -26.5t-82 -73t-29.5 -107.5q0 -70 43 -124t124 -79l137 -42q50 -15 77 -42
t27 -74q0 -52 -40.5 -82.5t-106.5 -30.5q-72 0 -126 38.5t-80 110.5l-85 -35q18 -57 59 -102.5t100 -72.5t130 -27zM324 862q26 0 44 18t18 45q0 26 -18 44t-44 18q-27 0 -45 -18t-18 -44t18 -44.5t45 -18.5z" />
    <glyph glyph-name="uni1E61" unicode="&#x1e61;" horiz-adv-x="511" 
d="M265 -12q58 0 102 20t69 55.5t25 81.5q0 56 -37 96t-102 59l-88 26q-16 5 -33 12.5t-29 22t-12 37.5q0 32 24.5 52t64.5 20q44 0 80.5 -24.5t54.5 -66.5l76 35q-24 65 -80.5 101t-127.5 36q-53 0 -95.5 -20t-67 -55.5t-24.5 -83.5q0 -52 33.5 -91.5t106.5 -59.5l81 -23
q17 -4 35.5 -12.5t32 -23t13.5 -38.5q0 -34 -29 -55t-73 -21q-49 0 -89 27.5t-63 76.5l-74 -36q25 -68 85 -108t141 -40zM256 655q26 0 44 18t18 45q0 26 -18 44t-44 18q-27 0 -45 -18t-18 -44t18 -44.5t45 -18.5z" />
    <glyph glyph-name="uni1E62" unicode="&#x1e62;" horiz-adv-x="646" 
d="M339 -12q73 0 128.5 26.5t87 73.5t31.5 108q0 146 -178 201l-125 37q-53 17 -79 49.5t-26 72.5q0 52 37 82.5t97 30.5q65 0 113.5 -33t71.5 -95l84 35q-17 51 -55.5 92t-93 65t-121.5 24t-119.5 -26.5t-82 -73t-29.5 -107.5q0 -70 43 -124t124 -79l137 -42q50 -15 77 -42
t27 -74q0 -52 -40.5 -82.5t-106.5 -30.5q-72 0 -126 38.5t-80 110.5l-85 -35q18 -57 59 -102.5t100 -72.5t130 -27zM324 -205q26 0 44 18t18 45q0 26 -18 44t-44 18q-27 0 -45 -18t-18 -44t18 -44.5t45 -18.5z" />
    <glyph glyph-name="uni1E63" unicode="&#x1e63;" horiz-adv-x="511" 
d="M265 -12q58 0 102 20t69 55.5t25 81.5q0 56 -37 96t-102 59l-88 26q-16 5 -33 12.5t-29 22t-12 37.5q0 32 24.5 52t64.5 20q44 0 80.5 -24.5t54.5 -66.5l76 35q-24 65 -80.5 101t-127.5 36q-53 0 -95.5 -20t-67 -55.5t-24.5 -83.5q0 -52 33.5 -91.5t106.5 -59.5l81 -23
q17 -4 35.5 -12.5t32 -23t13.5 -38.5q0 -34 -29 -55t-73 -21q-49 0 -89 27.5t-63 76.5l-74 -36q25 -68 85 -108t141 -40zM256 -205q26 0 44 18t18 45q0 26 -18 44t-44 18q-27 0 -45 -18t-18 -44t18 -44.5t45 -18.5z" />
    <glyph glyph-name="uni1E64" unicode="&#x1e64;" horiz-adv-x="646" 
d="M339 -12q73 0 128.5 26.5t87 73.5t31.5 108q0 146 -178 201l-125 37q-53 17 -79 49.5t-26 72.5q0 52 37 82.5t97 30.5q65 0 113.5 -33t71.5 -95l84 35q-17 51 -55.5 92t-93 65t-121.5 24t-119.5 -26.5t-82 -73t-29.5 -107.5q0 -70 43 -124t124 -79l137 -42q50 -15 77 -42
t27 -74q0 -52 -40.5 -82.5t-106.5 -30.5q-72 0 -126 38.5t-80 110.5l-85 -35q18 -57 59 -102.5t100 -72.5t130 -27zM284 1017h83l60 94h-96zM324 862q26 0 44 18t18 45q0 26 -18 44t-44 18q-27 0 -45 -18t-18 -44t18 -44.5t45 -18.5z" />
    <glyph glyph-name="uni1E65" unicode="&#x1e65;" horiz-adv-x="511" 
d="M265 -12q58 0 102 20t69 55.5t25 81.5q0 56 -37 96t-102 59l-88 26q-16 5 -33 12.5t-29 22t-12 37.5q0 32 24.5 52t64.5 20q44 0 80.5 -24.5t54.5 -66.5l76 35q-24 65 -80.5 101t-127.5 36q-53 0 -95.5 -20t-67 -55.5t-24.5 -83.5q0 -52 33.5 -91.5t106.5 -59.5l81 -23
q17 -4 35.5 -12.5t32 -23t13.5 -38.5q0 -34 -29 -55t-73 -21q-49 0 -89 27.5t-63 76.5l-74 -36q25 -68 85 -108t141 -40zM216 810h83l60 94h-96zM256 655q26 0 44 18t18 45q0 26 -18 44t-44 18q-27 0 -45 -18t-18 -44t18 -44.5t45 -18.5z" />
    <glyph glyph-name="uni1E66" unicode="&#x1e66;" horiz-adv-x="646" 
d="M339 -12q73 0 128.5 26.5t87 73.5t31.5 108q0 146 -178 201l-125 37q-53 17 -79 49.5t-26 72.5q0 52 37 82.5t97 30.5q65 0 113.5 -33t71.5 -95l84 35q-17 51 -55.5 92t-93 65t-121.5 24t-119.5 -26.5t-82 -73t-29.5 -107.5q0 -70 43 -124t124 -79l137 -42q50 -15 77 -42
t27 -74q0 -52 -40.5 -82.5t-106.5 -30.5q-72 0 -126 38.5t-80 110.5l-85 -35q18 -57 59 -102.5t100 -72.5t130 -27zM324 991q26 0 44 18t18 45q0 26 -18 44t-44 18t-44.5 -18t-18.5 -44t18.5 -44.5t44.5 -18.5zM275 847h95l116 144h-85l-78 -94l-76 94h-86z" />
    <glyph glyph-name="uni1E67" unicode="&#x1e67;" horiz-adv-x="511" 
d="M265 -12q58 0 102 20t69 55.5t25 81.5q0 56 -37 96t-102 59l-88 26q-16 5 -33 12.5t-29 22t-12 37.5q0 32 24.5 52t64.5 20q44 0 80.5 -24.5t54.5 -66.5l76 35q-24 65 -80.5 101t-127.5 36q-53 0 -95.5 -20t-67 -55.5t-24.5 -83.5q0 -52 33.5 -91.5t106.5 -59.5l81 -23
q17 -4 35.5 -12.5t32 -23t13.5 -38.5q0 -34 -29 -55t-73 -21q-49 0 -89 27.5t-63 76.5l-74 -36q25 -68 85 -108t141 -40zM257 784q26 0 44 18t18 45q0 26 -18 44t-44 18t-44.5 -18t-18.5 -44t18.5 -44.5t44.5 -18.5zM208 640h95l116 144h-85l-78 -94l-76 94h-86z" />
    <glyph glyph-name="uni1E68" unicode="&#x1e68;" horiz-adv-x="646" 
d="M339 -12q73 0 128.5 26.5t87 73.5t31.5 108q0 146 -178 201l-125 37q-53 17 -79 49.5t-26 72.5q0 52 37 82.5t97 30.5q65 0 113.5 -33t71.5 -95l84 35q-17 51 -55.5 92t-93 65t-121.5 24t-119.5 -26.5t-82 -73t-29.5 -107.5q0 -70 43 -124t124 -79l137 -42q50 -15 77 -42
t27 -74q0 -52 -40.5 -82.5t-106.5 -30.5q-72 0 -126 38.5t-80 110.5l-85 -35q18 -57 59 -102.5t100 -72.5t130 -27zM324 -205q26 0 44 18t18 45q0 26 -18 44t-44 18q-27 0 -45 -18t-18 -44t18 -44.5t45 -18.5zM324 862q26 0 44 18t18 45q0 26 -18 44t-44 18q-27 0 -45 -18
t-18 -44t18 -44.5t45 -18.5z" />
    <glyph glyph-name="uni1E69" unicode="&#x1e69;" horiz-adv-x="511" 
d="M265 -12q58 0 102 20t69 55.5t25 81.5q0 56 -37 96t-102 59l-88 26q-16 5 -33 12.5t-29 22t-12 37.5q0 32 24.5 52t64.5 20q44 0 80.5 -24.5t54.5 -66.5l76 35q-24 65 -80.5 101t-127.5 36q-53 0 -95.5 -20t-67 -55.5t-24.5 -83.5q0 -52 33.5 -91.5t106.5 -59.5l81 -23
q17 -4 35.5 -12.5t32 -23t13.5 -38.5q0 -34 -29 -55t-73 -21q-49 0 -89 27.5t-63 76.5l-74 -36q25 -68 85 -108t141 -40zM256 -205q26 0 44 18t18 45q0 26 -18 44t-44 18q-27 0 -45 -18t-18 -44t18 -44.5t45 -18.5zM256 655q26 0 44 18t18 45q0 26 -18 44t-44 18
q-27 0 -45 -18t-18 -44t18 -44.5t45 -18.5z" />
    <glyph glyph-name="uni1E6C" unicode="&#x1e6c;" horiz-adv-x="522" 
d="M213 0h99v655h199v90h-500v-90h202v-655zM262 -205q26 0 44 18t18 45q0 26 -18 44t-44 18q-27 0 -45 -18t-18 -44t18 -44.5t45 -18.5z" />
    <glyph glyph-name="uni1E6D" unicode="&#x1e6d;" horiz-adv-x="396" 
d="M291 -6q11 0 27 1t29 4v83q-9 -1 -19 -2t-18 -1q-49 0 -69.5 24.5t-20.5 65.5v281h121v89h-121v124h-93v-44q0 -37 -21 -58.5t-57 -21.5h-20v-89h98v-284q0 -82 42.5 -127t121.5 -45zM284 -205q26 0 44 18t18 45q0 26 -18 44t-44 18q-27 0 -45 -18t-18 -44t18 -44.5
t45 -18.5z" />
    <glyph glyph-name="uni1E6E" unicode="&#x1e6e;" horiz-adv-x="522" 
d="M213 0h99v655h199v90h-500v-90h202v-655zM128 -172h267v72h-267v-72z" />
    <glyph glyph-name="uni1E6F" unicode="&#x1e6f;" horiz-adv-x="396" 
d="M291 -6q11 0 27 1t29 4v83q-9 -1 -19 -2t-18 -1q-49 0 -69.5 24.5t-20.5 65.5v281h121v89h-121v124h-93v-44q0 -37 -21 -58.5t-57 -21.5h-20v-89h98v-284q0 -82 42.5 -127t121.5 -45zM150 -172h267v72h-267v-72z" />
    <glyph glyph-name="uni1E78" unicode="&#x1e78;" horiz-adv-x="706" 
d="M353 -12q82 0 143.5 34t96.5 93.5t35 135.5v494h-99v-492q0 -51 -22.5 -90.5t-62 -61.5t-91.5 -22t-91.5 22t-62 61.5t-22.5 90.5v492h-99v-494q0 -76 35 -135.5t97 -93.5t143 -34zM322 1017h82l61 94h-97zM418 878q38 0 60 27.5t23 80.5h-64q-1 -17 -9 -29t-23 -12
q-18 0 -32 11.5t-32 23t-48 11.5q-37 0 -61 -27.5t-25 -81.5h63q5 42 33 42q19 0 33 -11.5t32.5 -23t49.5 -11.5z" />
    <glyph glyph-name="uni1E79" unicode="&#x1e79;" 
d="M263 -12q50 0 90 20.5t64 57.5v-66h91v539h-94v-319q0 -66 -36.5 -104t-93.5 -38q-58 0 -94 36.5t-36 97.5v327h-93v-337q0 -63 26 -111.5t71.5 -75.5t104.5 -27zM259 810h82l61 94h-97zM355 671q38 0 60 27.5t23 80.5h-64q-1 -17 -9 -29t-23 -12q-18 0 -32 11.5t-32 23
t-48 11.5q-37 0 -61 -27.5t-25 -81.5h63q5 42 33 42q19 0 33 -11.5t32.5 -23t49.5 -11.5z" />
    <glyph glyph-name="uni1E7A" unicode="&#x1e7a;" horiz-adv-x="706" 
d="M353 -12q82 0 143.5 34t96.5 93.5t35 135.5v494h-99v-492q0 -51 -22.5 -90.5t-62 -61.5t-91.5 -22t-91.5 22t-62 61.5t-22.5 90.5v492h-99v-494q0 -76 35 -135.5t97 -93.5t143 -34zM267 993q26 0 44 18.5t18 44.5t-18 44t-44 18q-27 0 -45 -18t-18 -44t18 -44.5t45 -18.5
zM442 993q26 0 44 18.5t18 44.5t-18 44t-44 18q-27 0 -45 -18t-18 -44t18 -44.5t45 -18.5zM220 873h267v73h-267v-73z" />
    <glyph glyph-name="uni1E7B" unicode="&#x1e7b;" 
d="M263 -12q50 0 90 20.5t64 57.5v-66h91v539h-94v-319q0 -66 -36.5 -104t-93.5 -38q-58 0 -94 36.5t-36 97.5v327h-93v-337q0 -63 26 -111.5t71.5 -75.5t104.5 -27zM204 786q26 0 44 18.5t18 44.5t-18 44t-44 18q-27 0 -45 -18t-18 -44t18 -44.5t45 -18.5zM379 786
q26 0 44 18.5t18 44.5t-18 44t-44 18q-27 0 -45 -18t-18 -44t18 -44.5t45 -18.5zM157 666h267v73h-267v-73z" />
    <glyph glyph-name="Wgrave" unicode="&#x1e80;" horiz-adv-x="996" 
d="M220 0h109l169 606l169 -606h109l209 745h-103l-164 -610l-168 610h-103l-170 -612l-163 612h-103zM458 847h80l-73 144h-99z" />
    <glyph glyph-name="wgrave" unicode="&#x1e81;" horiz-adv-x="826" 
d="M196 0h89l128 406l128 -406h89l185 539h-102l-130 -395l-126 395h-88l-126 -395l-129 395h-103zM373 640h80l-73 144h-99z" />
    <glyph glyph-name="Wacute" unicode="&#x1e82;" horiz-adv-x="996" 
d="M220 0h109l169 606l169 -606h109l209 745h-103l-164 -610l-168 610h-103l-170 -612l-163 612h-103zM458 847h80l92 144h-99z" />
    <glyph glyph-name="wacute" unicode="&#x1e83;" horiz-adv-x="826" 
d="M196 0h89l128 406l128 -406h89l185 539h-102l-130 -395l-126 395h-88l-126 -395l-129 395h-103zM373 640h80l92 144h-99z" />
    <glyph glyph-name="Wdieresis" unicode="&#x1e84;" horiz-adv-x="996" 
d="M220 0h109l169 606l169 -606h109l209 745h-103l-164 -610l-168 610h-103l-170 -612l-163 612h-103zM412 862q26 0 44 18t18 45q0 26 -18 44t-44 18q-27 0 -45 -18t-18 -44t18 -44.5t45 -18.5zM587 862q26 0 44 18t18 45q0 26 -18 44t-44 18q-27 0 -45 -18t-18 -44
t18 -44.5t45 -18.5z" />
    <glyph glyph-name="wdieresis" unicode="&#x1e85;" horiz-adv-x="826" 
d="M196 0h89l128 406l128 -406h89l185 539h-102l-130 -395l-126 395h-88l-126 -395l-129 395h-103zM327 655q26 0 44 18t18 45q0 26 -18 44t-44 18q-27 0 -45 -18t-18 -44t18 -44.5t45 -18.5zM502 655q26 0 44 18t18 45q0 26 -18 44t-44 18q-27 0 -45 -18t-18 -44t18 -44.5
t45 -18.5z" />
    <glyph glyph-name="uni1E8E" unicode="&#x1e8e;" horiz-adv-x="635" 
d="M269 0h99v341l256 404h-111l-195 -308l-196 308h-111l258 -404v-341zM319 862q26 0 44 18t18 45q0 26 -18 44t-44 18q-27 0 -45 -18t-18 -44t18 -44.5t45 -18.5z" />
    <glyph glyph-name="uni1E8F" unicode="&#x1e8f;" horiz-adv-x="553" 
d="M101 -220q53 0 90.5 21t64 56.5t43.5 78.5l243 603h-103l-163 -421l-164 421h-101l214 -540l-16 -39q-22 -50 -46.5 -71t-71.5 -21q-16 0 -32.5 2.5t-27.5 4.5v-83q16 -7 34 -9.5t36 -2.5zM277 655q26 0 44 18t18 45q0 26 -18 44t-44 18q-27 0 -45 -18t-18 -44t18 -44.5
t45 -18.5z" />
    <glyph glyph-name="uni1E92" unicode="&#x1e92;" 
d="M19 0h542v90h-413l403 583v72h-508v-90h381l-405 -583v-72zM291 -205q26 0 44 18t18 45q0 26 -18 44t-44 18q-27 0 -45 -18t-18 -44t18 -44.5t45 -18.5z" />
    <glyph glyph-name="uni1E93" unicode="&#x1e93;" horiz-adv-x="460" 
d="M19 0h422v89h-293l291 371v79h-404v-89h278l-294 -371v-79zM228 -205q26 0 44 18t18 45q0 26 -18 44t-44 18q-27 0 -45 -18t-18 -44t18 -44.5t45 -18.5z" />
    <glyph glyph-name="uni1E97" unicode="&#x1e97;" horiz-adv-x="396" 
d="M291 -6q11 0 27 1t29 4v83q-9 -1 -19 -2t-18 -1q-49 0 -69.5 24.5t-20.5 65.5v281h121v89h-121v124h-93v-44q0 -37 -21 -58.5t-57 -21.5h-20v-89h98v-284q0 -82 42.5 -127t121.5 -45zM87 779q26 0 44 18t18 45q0 26 -18 44t-44 18q-27 0 -45 -18t-18 -44t18 -44.5
t45 -18.5zM262 779q26 0 44 18t18 45q0 26 -18 44t-44 18q-27 0 -45 -18t-18 -44t18 -44.5t45 -18.5z" />
    <glyph glyph-name="uni1E9E" unicode="&#x1e9e;" horiz-adv-x="1293" 
d="M339 -12q73 0 128.5 26.5t87 73.5t31.5 108q0 146 -178 201l-125 37q-53 17 -79 49.5t-26 72.5q0 52 37 82.5t97 30.5q65 0 113.5 -33t71.5 -95l84 35q-17 51 -55.5 92t-93 65t-121.5 24t-119.5 -26.5t-82 -73t-29.5 -107.5q0 -70 43 -124t124 -79l137 -42q50 -15 77 -42
t27 -74q0 -52 -40.5 -82.5t-106.5 -30.5q-72 0 -126 38.5t-80 110.5l-85 -35q18 -57 59 -102.5t100 -72.5t130 -27zM985 -12q73 0 128.5 26.5t87 73.5t31.5 108q0 146 -178 201l-125 37q-53 17 -79 49.5t-26 72.5q0 52 37 82.5t97 30.5q65 0 113.5 -33t71.5 -95l84 35
q-17 51 -55.5 92t-93 65t-121.5 24t-119.5 -26.5t-82 -73t-29.5 -107.5q0 -70 43 -124t124 -79l137 -42q50 -15 77 -42t27 -74q0 -52 -40.5 -82.5t-106.5 -30.5q-72 0 -126 38.5t-80 110.5l-85 -35q18 -57 59 -102.5t100 -72.5t130 -27z" />
    <glyph glyph-name="uni1EA0" unicode="&#x1ea0;" horiz-adv-x="672" 
d="M11 0h105l61 175h318l61 -175h105l-267 745h-116zM208 265l128 369l128 -369h-256zM337 -205q26 0 44 18t18 45q0 26 -18 44t-44 18q-27 0 -45 -18t-18 -44t18 -44.5t45 -18.5z" />
    <glyph glyph-name="uni1EA1" unicode="&#x1ea1;" horiz-adv-x="575" 
d="M230 -12q59 0 106 22.5t76 59.5v-70h91v366q0 55 -26.5 96.5t-73.5 65t-109 23.5q-48 0 -92 -17t-77 -46.5t-48 -66.5l81 -42q17 38 52 62t82 24q53 0 85.5 -27.5t32.5 -71.5v-25l-184 -30q-91 -15 -133.5 -60.5t-42.5 -109.5q0 -68 50.5 -110.5t129.5 -42.5zM148 144
q0 35 23.5 59t75.5 33l163 27v-34q0 -45 -21 -82t-59 -58.5t-89 -21.5q-40 0 -66.5 22t-26.5 55zM288 -205q26 0 44 18t18 45q0 26 -18 44t-44 18q-27 0 -45 -18t-18 -44t18 -44.5t45 -18.5z" />
    <glyph glyph-name="uni1EA2" unicode="&#x1ea2;" horiz-adv-x="672" 
d="M11 0h105l61 175h318l61 -175h105l-267 745h-116zM208 265l128 369l128 -369h-256zM313 797q56 22 82.5 52t26.5 66q0 41 -32 66.5t-84 25.5q-13 0 -28.5 -2t-26.5 -7v-51q18 6 38 6q31 0 46 -14t15 -35q0 -42 -58 -69z" />
    <glyph glyph-name="uni1EA3" unicode="&#x1ea3;" horiz-adv-x="575" 
d="M230 -12q59 0 106 22.5t76 59.5v-70h91v366q0 55 -26.5 96.5t-73.5 65t-109 23.5q-48 0 -92 -17t-77 -46.5t-48 -66.5l81 -42q17 38 52 62t82 24q53 0 85.5 -27.5t32.5 -71.5v-25l-184 -30q-91 -15 -133.5 -60.5t-42.5 -109.5q0 -68 50.5 -110.5t129.5 -42.5zM148 144
q0 35 23.5 59t75.5 33l163 27v-34q0 -45 -21 -82t-59 -58.5t-89 -21.5q-40 0 -66.5 22t-26.5 55zM264 590q56 22 82.5 52t26.5 66q0 41 -32 66.5t-84 25.5q-13 0 -28.5 -2t-26.5 -7v-51q18 6 38 6q31 0 46 -14t15 -35q0 -42 -58 -69z" />
    <glyph glyph-name="uni1EA4" unicode="&#x1ea4;" horiz-adv-x="672" 
d="M11 0h105l61 175h318l61 -175h105l-267 745h-116zM208 265l128 369l128 -369h-256zM416 964h83l60 94h-96zM174 847h86l76 94l78 -94h85l-116 144h-95z" />
    <glyph glyph-name="uni1EA5" unicode="&#x1ea5;" horiz-adv-x="575" 
d="M230 -12q59 0 106 22.5t76 59.5v-70h91v366q0 55 -26.5 96.5t-73.5 65t-109 23.5q-48 0 -92 -17t-77 -46.5t-48 -66.5l81 -42q17 38 52 62t82 24q53 0 85.5 -27.5t32.5 -71.5v-25l-184 -30q-91 -15 -133.5 -60.5t-42.5 -109.5q0 -68 50.5 -110.5t129.5 -42.5zM148 144
q0 35 23.5 59t75.5 33l163 27v-34q0 -45 -21 -82t-59 -58.5t-89 -21.5q-40 0 -66.5 22t-26.5 55zM367 757h83l60 94h-96zM125 640h86l76 94l78 -94h85l-116 144h-95z" />
    <glyph glyph-name="uni1EA6" unicode="&#x1ea6;" horiz-adv-x="672" 
d="M11 0h105l61 175h318l61 -175h105l-267 745h-116zM208 265l128 369l128 -369h-256zM439 964h77l-47 91h-88zM174 847h86l76 94l78 -94h85l-116 144h-95z" />
    <glyph glyph-name="uni1EA7" unicode="&#x1ea7;" horiz-adv-x="575" 
d="M230 -12q59 0 106 22.5t76 59.5v-70h91v366q0 55 -26.5 96.5t-73.5 65t-109 23.5q-48 0 -92 -17t-77 -46.5t-48 -66.5l81 -42q17 38 52 62t82 24q53 0 85.5 -27.5t32.5 -71.5v-25l-184 -30q-91 -15 -133.5 -60.5t-42.5 -109.5q0 -68 50.5 -110.5t129.5 -42.5zM148 144
q0 35 23.5 59t75.5 33l163 27v-34q0 -45 -21 -82t-59 -58.5t-89 -21.5q-40 0 -66.5 22t-26.5 55zM390 757h77l-47 91h-88zM125 640h86l76 94l78 -94h85l-116 144h-95z" />
    <glyph glyph-name="uni1EA8" unicode="&#x1ea8;" horiz-adv-x="672" 
d="M11 0h105l61 175h318l61 -175h105l-267 745h-116zM208 265l128 369l128 -369h-256zM462 933q56 22 82 52t26 66q0 41 -32 66.5t-83 25.5q-13 0 -28.5 -2t-27.5 -7v-51q20 6 38 6q32 0 47 -14t15 -35q0 -42 -58 -69zM174 847h86l76 94l78 -94h85l-116 144h-95z" />
    <glyph glyph-name="uni1EA9" unicode="&#x1ea9;" horiz-adv-x="575" 
d="M230 -12q59 0 106 22.5t76 59.5v-70h91v366q0 55 -26.5 96.5t-73.5 65t-109 23.5q-48 0 -92 -17t-77 -46.5t-48 -66.5l81 -42q17 38 52 62t82 24q53 0 85.5 -27.5t32.5 -71.5v-25l-184 -30q-91 -15 -133.5 -60.5t-42.5 -109.5q0 -68 50.5 -110.5t129.5 -42.5zM148 144
q0 35 23.5 59t75.5 33l163 27v-34q0 -45 -21 -82t-59 -58.5t-89 -21.5q-40 0 -66.5 22t-26.5 55zM413 726q56 22 82 52t26 66q0 41 -32 66.5t-83 25.5q-13 0 -28.5 -2t-27.5 -7v-51q20 6 38 6q32 0 47 -14t15 -35q0 -42 -58 -69zM125 640h86l76 94l78 -94h85l-116 144h-95z
" />
    <glyph glyph-name="uni1EAA" unicode="&#x1eaa;" horiz-adv-x="672" 
d="M11 0h105l61 175h318l61 -175h105l-267 745h-116zM208 265l128 369l128 -369h-256zM399 1024q37 0 59 27t23 79h-61q-1 -18 -8.5 -29.5t-23.5 -11.5q-18 0 -32 11.5t-32 23t-48 11.5q-36 0 -59.5 -27t-25.5 -79h61q4 41 33 41q19 0 33 -11.5t32 -23t49 -11.5zM174 847h86
l76 94l78 -94h85l-116 144h-95z" />
    <glyph glyph-name="uni1EAB" unicode="&#x1eab;" horiz-adv-x="575" 
d="M230 -12q59 0 106 22.5t76 59.5v-70h91v366q0 55 -26.5 96.5t-73.5 65t-109 23.5q-48 0 -92 -17t-77 -46.5t-48 -66.5l81 -42q17 38 52 62t82 24q53 0 85.5 -27.5t32.5 -71.5v-25l-184 -30q-91 -15 -133.5 -60.5t-42.5 -109.5q0 -68 50.5 -110.5t129.5 -42.5zM148 144
q0 35 23.5 59t75.5 33l163 27v-34q0 -45 -21 -82t-59 -58.5t-89 -21.5q-40 0 -66.5 22t-26.5 55zM350 817q37 0 59 27t23 79h-61q-1 -18 -8.5 -29.5t-23.5 -11.5q-18 0 -32 11.5t-32 23t-48 11.5q-36 0 -59.5 -27t-25.5 -79h61q4 41 33 41q19 0 33 -11.5t32 -23t49 -11.5z
M125 640h86l76 94l78 -94h85l-116 144h-95z" />
    <glyph glyph-name="uni1EAC" unicode="&#x1eac;" horiz-adv-x="672" 
d="M11 0h105l61 175h318l61 -175h105l-267 745h-116zM208 265l128 369l128 -369h-256zM337 -205q26 0 44 18t18 45q0 26 -18 44t-44 18q-27 0 -45 -18t-18 -44t18 -44.5t45 -18.5zM174 847h86l76 94l78 -94h85l-116 144h-95z" />
    <glyph glyph-name="uni1EAD" unicode="&#x1ead;" horiz-adv-x="575" 
d="M230 -12q59 0 106 22.5t76 59.5v-70h91v366q0 55 -26.5 96.5t-73.5 65t-109 23.5q-48 0 -92 -17t-77 -46.5t-48 -66.5l81 -42q17 38 52 62t82 24q53 0 85.5 -27.5t32.5 -71.5v-25l-184 -30q-91 -15 -133.5 -60.5t-42.5 -109.5q0 -68 50.5 -110.5t129.5 -42.5zM148 144
q0 35 23.5 59t75.5 33l163 27v-34q0 -45 -21 -82t-59 -58.5t-89 -21.5q-40 0 -66.5 22t-26.5 55zM288 -205q26 0 44 18t18 45q0 26 -18 44t-44 18q-27 0 -45 -18t-18 -44t18 -44.5t45 -18.5zM125 640h86l76 94l78 -94h85l-116 144h-95z" />
    <glyph glyph-name="uni1EAE" unicode="&#x1eae;" horiz-adv-x="672" 
d="M11 0h105l61 175h318l61 -175h105l-267 745h-116zM208 265l128 369l128 -369h-256zM294 1017h83l60 94h-96zM336 847q40 0 73 19t52.5 50.5t19.5 69.5h-70q0 -30 -22 -52t-53 -22t-52.5 22t-21.5 52h-71q0 -37 19.5 -69t52.5 -51t73 -19z" />
    <glyph glyph-name="uni1EAF" unicode="&#x1eaf;" horiz-adv-x="575" 
d="M230 -12q59 0 106 22.5t76 59.5v-70h91v366q0 55 -26.5 96.5t-73.5 65t-109 23.5q-48 0 -92 -17t-77 -46.5t-48 -66.5l81 -42q17 38 52 62t82 24q53 0 85.5 -27.5t32.5 -71.5v-25l-184 -30q-91 -15 -133.5 -60.5t-42.5 -109.5q0 -68 50.5 -110.5t129.5 -42.5zM148 144
q0 35 23.5 59t75.5 33l163 27v-34q0 -45 -21 -82t-59 -58.5t-89 -21.5q-40 0 -66.5 22t-26.5 55zM245 810h83l60 94h-96zM287 640q40 0 73 19t52.5 50.5t19.5 69.5h-70q0 -30 -22 -52t-53 -22t-52.5 22t-21.5 52h-71q0 -37 19.5 -69t52.5 -51t73 -19z" />
    <glyph glyph-name="uni1EB0" unicode="&#x1eb0;" horiz-adv-x="672" 
d="M11 0h105l61 175h318l61 -175h105l-267 745h-116zM208 265l128 369l128 -369h-256zM295 1017h83l-47 94h-96zM336 847q41 0 73.5 19t52 51t19.5 69h-71q0 -30 -21 -52t-53 -22q-31 0 -53 22t-22 52h-70q0 -38 19.5 -69.5t52.5 -50.5t73 -19z" />
    <glyph glyph-name="uni1EB1" unicode="&#x1eb1;" horiz-adv-x="575" 
d="M230 -12q59 0 106 22.5t76 59.5v-70h91v366q0 55 -26.5 96.5t-73.5 65t-109 23.5q-48 0 -92 -17t-77 -46.5t-48 -66.5l81 -42q17 38 52 62t82 24q53 0 85.5 -27.5t32.5 -71.5v-25l-184 -30q-91 -15 -133.5 -60.5t-42.5 -109.5q0 -68 50.5 -110.5t129.5 -42.5zM148 144
q0 35 23.5 59t75.5 33l163 27v-34q0 -45 -21 -82t-59 -58.5t-89 -21.5q-40 0 -66.5 22t-26.5 55zM246 810h83l-47 94h-96zM287 640q41 0 73.5 19t52 51t19.5 69h-71q0 -30 -21 -52t-53 -22q-31 0 -53 22t-22 52h-70q0 -38 19.5 -69.5t52.5 -50.5t73 -19z" />
    <glyph glyph-name="uni1EB2" unicode="&#x1eb2;" horiz-adv-x="672" 
d="M11 0h105l61 175h318l61 -175h105l-267 745h-116zM208 265l128 369l128 -369h-256zM319 982q56 22 82 52.5t26 65.5q0 41 -32 66.5t-83 25.5q-13 0 -28.5 -2t-27.5 -7v-51q10 3 19 5t19 2q32 0 47 -14.5t15 -35.5q0 -40 -58 -69zM336 847q40 0 73 19t52.5 50.5t19.5 69.5
h-70q0 -30 -22 -52t-53 -22t-52.5 22t-21.5 52h-71q0 -37 19.5 -69t52.5 -51t73 -19z" />
    <glyph glyph-name="uni1EB3" unicode="&#x1eb3;" horiz-adv-x="575" 
d="M230 -12q59 0 106 22.5t76 59.5v-70h91v366q0 55 -26.5 96.5t-73.5 65t-109 23.5q-48 0 -92 -17t-77 -46.5t-48 -66.5l81 -42q17 38 52 62t82 24q53 0 85.5 -27.5t32.5 -71.5v-25l-184 -30q-91 -15 -133.5 -60.5t-42.5 -109.5q0 -68 50.5 -110.5t129.5 -42.5zM148 144
q0 35 23.5 59t75.5 33l163 27v-34q0 -45 -21 -82t-59 -58.5t-89 -21.5q-40 0 -66.5 22t-26.5 55zM270 775q56 22 82 52.5t26 65.5q0 41 -32 66.5t-83 25.5q-13 0 -28.5 -2t-27.5 -7v-51q10 3 19 5t19 2q32 0 47 -14.5t15 -35.5q0 -40 -58 -69zM287 640q40 0 73 19t52.5 50.5
t19.5 69.5h-70q0 -30 -22 -52t-53 -22t-52.5 22t-21.5 52h-71q0 -37 19.5 -69t52.5 -51t73 -19z" />
    <glyph glyph-name="uni1EB4" unicode="&#x1eb4;" horiz-adv-x="672" 
d="M11 0h105l61 175h318l61 -175h105l-267 745h-116zM208 265l128 369l128 -369h-256zM399 1027q37 0 59 27t23 78h-61q-1 -18 -9 -29.5t-24 -11.5q-18 0 -31.5 11.5t-31.5 23t-48 11.5q-36 0 -60 -27t-25 -79h61q4 41 33 41q18 0 32 -11.5t32.5 -22.5t49.5 -11zM336 847
q41 0 74 19t52.5 50.5t19.5 69.5h-71q0 -30 -22 -52t-53 -22t-52.5 22t-21.5 52h-71q0 -37 19.5 -69t52.5 -51t73 -19z" />
    <glyph glyph-name="uni1EB5" unicode="&#x1eb5;" horiz-adv-x="575" 
d="M230 -12q59 0 106 22.5t76 59.5v-70h91v366q0 55 -26.5 96.5t-73.5 65t-109 23.5q-48 0 -92 -17t-77 -46.5t-48 -66.5l81 -42q17 38 52 62t82 24q53 0 85.5 -27.5t32.5 -71.5v-25l-184 -30q-91 -15 -133.5 -60.5t-42.5 -109.5q0 -68 50.5 -110.5t129.5 -42.5zM148 144
q0 35 23.5 59t75.5 33l163 27v-34q0 -45 -21 -82t-59 -58.5t-89 -21.5q-40 0 -66.5 22t-26.5 55zM351 820q37 0 59 27t23 78h-61q-1 -18 -9 -29.5t-24 -11.5q-18 0 -31.5 11.5t-31.5 23t-48 11.5q-36 0 -60 -27t-25 -79h61q4 41 33 41q18 0 32 -11.5t32.5 -22.5t49.5 -11z
M288 640q41 0 74 19t52.5 50.5t19.5 69.5h-71q0 -30 -22 -52t-53 -22t-52.5 22t-21.5 52h-71q0 -37 19.5 -69t52.5 -51t73 -19z" />
    <glyph glyph-name="uni1EB6" unicode="&#x1eb6;" horiz-adv-x="672" 
d="M11 0h105l61 175h318l61 -175h105l-267 745h-116zM208 265l128 369l128 -369h-256zM337 -205q26 0 44 18t18 45q0 26 -18 44t-44 18q-27 0 -45 -18t-18 -44t18 -44.5t45 -18.5zM336 847q40 0 73 19t52.5 50.5t19.5 69.5h-70q0 -30 -22 -52t-53 -22t-52.5 22t-21.5 52h-71
q0 -37 19.5 -69t52.5 -51t73 -19z" />
    <glyph glyph-name="uni1EB7" unicode="&#x1eb7;" horiz-adv-x="575" 
d="M230 -12q59 0 106 22.5t76 59.5v-70h91v366q0 55 -26.5 96.5t-73.5 65t-109 23.5q-48 0 -92 -17t-77 -46.5t-48 -66.5l81 -42q17 38 52 62t82 24q53 0 85.5 -27.5t32.5 -71.5v-25l-184 -30q-91 -15 -133.5 -60.5t-42.5 -109.5q0 -68 50.5 -110.5t129.5 -42.5zM148 144
q0 35 23.5 59t75.5 33l163 27v-34q0 -45 -21 -82t-59 -58.5t-89 -21.5q-40 0 -66.5 22t-26.5 55zM288 -205q26 0 44 18t18 45q0 26 -18 44t-44 18q-27 0 -45 -18t-18 -44t18 -44.5t45 -18.5zM287 640q40 0 73 19t52.5 50.5t19.5 69.5h-70q0 -30 -22 -52t-53 -22t-52.5 22
t-21.5 52h-71q0 -37 19.5 -69t52.5 -51t73 -19z" />
    <glyph glyph-name="uni1EB8" unicode="&#x1eb8;" horiz-adv-x="606" 
d="M83 0h485v90h-387v239h367v90h-367v236h387v90h-485v-745zM326 -205q26 0 44 18t18 45q0 26 -18 44t-44 18q-27 0 -45 -18t-18 -44t18 -44.5t45 -18.5z" />
    <glyph glyph-name="uni1EB9" unicode="&#x1eb9;" horiz-adv-x="614" 
d="M320 -12q83 0 144 39t86 95l-78 40q-23 -39 -60 -64t-91 -25q-45 0 -83.5 20.5t-63 58.5t-26.5 90h412q5 27 5 50q0 67 -30 126t-86.5 96t-136.5 37q-75 0 -134 -36t-93.5 -99.5t-34.5 -144.5t35 -145t96 -101t139 -37zM312 468q41 0 75 -18.5t55 -51.5t22 -76h-314
q10 68 56 107t106 39zM308 -205q26 0 44 18t18 45q0 26 -18 44t-44 18q-27 0 -45 -18t-18 -44t18 -44.5t45 -18.5z" />
    <glyph glyph-name="uni1EBA" unicode="&#x1eba;" horiz-adv-x="606" 
d="M83 0h485v90h-387v239h367v90h-367v236h387v90h-485v-745zM302 797q56 22 82.5 52t26.5 66q0 41 -32 66.5t-84 25.5q-13 0 -28.5 -2t-26.5 -7v-51q18 6 38 6q31 0 46 -14t15 -35q0 -42 -58 -69z" />
    <glyph glyph-name="uni1EBB" unicode="&#x1ebb;" horiz-adv-x="614" 
d="M320 -12q83 0 144 39t86 95l-78 40q-23 -39 -60 -64t-91 -25q-45 0 -83.5 20.5t-63 58.5t-26.5 90h412q5 27 5 50q0 67 -30 126t-86.5 96t-136.5 37q-75 0 -134 -36t-93.5 -99.5t-34.5 -144.5t35 -145t96 -101t139 -37zM312 468q41 0 75 -18.5t55 -51.5t22 -76h-314
q10 68 56 107t106 39zM284 590q56 22 82.5 52t26.5 66q0 41 -32 66.5t-84 25.5q-13 0 -28.5 -2t-26.5 -7v-51q18 6 38 6q31 0 46 -14t15 -35q0 -42 -58 -69z" />
    <glyph glyph-name="uni1EBC" unicode="&#x1ebc;" horiz-adv-x="606" 
d="M83 0h485v90h-387v239h367v90h-367v236h387v90h-485v-745zM390 878q38 0 60 27.5t23 80.5h-64q-1 -17 -9 -29t-23 -12q-18 0 -32 11.5t-32 23t-48 11.5q-37 0 -61 -27.5t-25 -81.5h63q5 42 33 42q19 0 33 -11.5t32.5 -23t49.5 -11.5z" />
    <glyph glyph-name="uni1EBD" unicode="&#x1ebd;" horiz-adv-x="614" 
d="M320 -12q83 0 144 39t86 95l-78 40q-23 -39 -60 -64t-91 -25q-45 0 -83.5 20.5t-63 58.5t-26.5 90h412q5 27 5 50q0 67 -30 126t-86.5 96t-136.5 37q-75 0 -134 -36t-93.5 -99.5t-34.5 -144.5t35 -145t96 -101t139 -37zM312 468q41 0 75 -18.5t55 -51.5t22 -76h-314
q10 68 56 107t106 39zM372 671q38 0 60 27.5t23 80.5h-64q-1 -17 -9 -29t-23 -12q-18 0 -32 11.5t-32 23t-48 11.5q-37 0 -61 -27.5t-25 -81.5h63q5 42 33 42q19 0 33 -11.5t32.5 -23t49.5 -11.5z" />
    <glyph glyph-name="uni1EBE" unicode="&#x1ebe;" horiz-adv-x="606" 
d="M83 0h485v90h-387v239h367v90h-367v236h387v90h-485v-745zM405 964h83l60 94h-96zM163 847h86l76 94l78 -94h85l-116 144h-95z" />
    <glyph glyph-name="uni1EBF" unicode="&#x1ebf;" horiz-adv-x="614" 
d="M320 -12q83 0 144 39t86 95l-78 40q-23 -39 -60 -64t-91 -25q-45 0 -83.5 20.5t-63 58.5t-26.5 90h412q5 27 5 50q0 67 -30 126t-86.5 96t-136.5 37q-75 0 -134 -36t-93.5 -99.5t-34.5 -144.5t35 -145t96 -101t139 -37zM312 468q41 0 75 -18.5t55 -51.5t22 -76h-314
q10 68 56 107t106 39zM387 757h83l60 94h-96zM145 640h86l76 94l78 -94h85l-116 144h-95z" />
    <glyph glyph-name="uni1EC0" unicode="&#x1ec0;" horiz-adv-x="606" 
d="M83 0h485v90h-387v239h367v90h-367v236h387v90h-485v-745zM428 964h77l-47 91h-88zM163 847h86l76 94l78 -94h85l-116 144h-95z" />
    <glyph glyph-name="uni1EC1" unicode="&#x1ec1;" horiz-adv-x="614" 
d="M320 -12q83 0 144 39t86 95l-78 40q-23 -39 -60 -64t-91 -25q-45 0 -83.5 20.5t-63 58.5t-26.5 90h412q5 27 5 50q0 67 -30 126t-86.5 96t-136.5 37q-75 0 -134 -36t-93.5 -99.5t-34.5 -144.5t35 -145t96 -101t139 -37zM312 468q41 0 75 -18.5t55 -51.5t22 -76h-314
q10 68 56 107t106 39zM410 757h77l-47 91h-88zM145 640h86l76 94l78 -94h85l-116 144h-95z" />
    <glyph glyph-name="uni1EC2" unicode="&#x1ec2;" horiz-adv-x="606" 
d="M83 0h485v90h-387v239h367v90h-367v236h387v90h-485v-745zM451 933q56 22 82 52t26 66q0 41 -32 66.5t-83 25.5q-13 0 -28.5 -2t-27.5 -7v-51q20 6 38 6q32 0 47 -14t15 -35q0 -42 -58 -69zM163 847h86l76 94l78 -94h85l-116 144h-95z" />
    <glyph glyph-name="uni1EC3" unicode="&#x1ec3;" horiz-adv-x="614" 
d="M320 -12q83 0 144 39t86 95l-78 40q-23 -39 -60 -64t-91 -25q-45 0 -83.5 20.5t-63 58.5t-26.5 90h412q5 27 5 50q0 67 -30 126t-86.5 96t-136.5 37q-75 0 -134 -36t-93.5 -99.5t-34.5 -144.5t35 -145t96 -101t139 -37zM312 468q41 0 75 -18.5t55 -51.5t22 -76h-314
q10 68 56 107t106 39zM433 726q56 22 82 52t26 66q0 41 -32 66.5t-83 25.5q-13 0 -28.5 -2t-27.5 -7v-51q20 6 38 6q32 0 47 -14t15 -35q0 -42 -58 -69zM145 640h86l76 94l78 -94h85l-116 144h-95z" />
    <glyph glyph-name="uni1EC4" unicode="&#x1ec4;" horiz-adv-x="606" 
d="M83 0h485v90h-387v239h367v90h-367v236h387v90h-485v-745zM388 1024q37 0 59 27t23 79h-61q-1 -18 -8.5 -29.5t-23.5 -11.5q-18 0 -32 11.5t-32 23t-48 11.5q-36 0 -59.5 -27t-25.5 -79h61q4 41 33 41q19 0 33 -11.5t32 -23t49 -11.5zM163 847h86l76 94l78 -94h85
l-116 144h-95z" />
    <glyph glyph-name="uni1EC5" unicode="&#x1ec5;" horiz-adv-x="614" 
d="M320 -12q83 0 144 39t86 95l-78 40q-23 -39 -60 -64t-91 -25q-45 0 -83.5 20.5t-63 58.5t-26.5 90h412q5 27 5 50q0 67 -30 126t-86.5 96t-136.5 37q-75 0 -134 -36t-93.5 -99.5t-34.5 -144.5t35 -145t96 -101t139 -37zM312 468q41 0 75 -18.5t55 -51.5t22 -76h-314
q10 68 56 107t106 39zM370 817q37 0 59 27t23 79h-61q-1 -18 -8.5 -29.5t-23.5 -11.5q-18 0 -32 11.5t-32 23t-48 11.5q-36 0 -59.5 -27t-25.5 -79h61q4 41 33 41q19 0 33 -11.5t32 -23t49 -11.5zM145 640h86l76 94l78 -94h85l-116 144h-95z" />
    <glyph glyph-name="uni1EC6" unicode="&#x1ec6;" horiz-adv-x="606" 
d="M83 0h485v90h-387v239h367v90h-367v236h387v90h-485v-745zM326 -205q26 0 44 18t18 45q0 26 -18 44t-44 18q-27 0 -45 -18t-18 -44t18 -44.5t45 -18.5zM163 847h86l76 94l78 -94h85l-116 144h-95z" />
    <glyph glyph-name="uni1EC7" unicode="&#x1ec7;" horiz-adv-x="614" 
d="M320 -12q83 0 144 39t86 95l-78 40q-23 -39 -60 -64t-91 -25q-45 0 -83.5 20.5t-63 58.5t-26.5 90h412q5 27 5 50q0 67 -30 126t-86.5 96t-136.5 37q-75 0 -134 -36t-93.5 -99.5t-34.5 -144.5t35 -145t96 -101t139 -37zM312 468q41 0 75 -18.5t55 -51.5t22 -76h-314
q10 68 56 107t106 39zM308 -205q26 0 44 18t18 45q0 26 -18 44t-44 18q-27 0 -45 -18t-18 -44t18 -44.5t45 -18.5zM145 640h86l76 94l78 -94h85l-116 144h-95z" />
    <glyph glyph-name="uni1EC8" unicode="&#x1ec8;" horiz-adv-x="264" 
d="M83 0h98v745h-98v-745zM109 797q56 22 82.5 52t26.5 66q0 41 -32 66.5t-84 25.5q-13 0 -28.5 -2t-26.5 -7v-51q18 6 38 6q31 0 46 -14t15 -35q0 -42 -58 -69z" />
    <glyph glyph-name="uni1EC9" unicode="&#x1ec9;" horiz-adv-x="209" 
d="M58 0h93v539h-93v-539zM81 590q56 22 82.5 52t26.5 66q0 41 -32 66.5t-84 25.5q-13 0 -28.5 -2t-26.5 -7v-51q18 6 38 6q31 0 46 -14t15 -35q0 -42 -58 -69z" />
    <glyph glyph-name="uni1ECA" unicode="&#x1eca;" horiz-adv-x="264" 
d="M83 0h98v745h-98v-745zM133 -205q26 0 44 18t18 45q0 26 -18 44t-44 18q-27 0 -45 -18t-18 -44t18 -44.5t45 -18.5z" />
    <glyph glyph-name="uni1ECB" unicode="&#x1ecb;" horiz-adv-x="237" 
d="M72 625h93v120h-93v-120zM72 0h93v539h-93v-539zM119 -205q26 0 44 18t18 45q0 26 -18 44t-44 18q-27 0 -45 -18t-18 -44t18 -44.5t45 -18.5z" />
    <glyph glyph-name="uni1ECC" unicode="&#x1ecc;" horiz-adv-x="878" 
d="M439 -12q80 0 148.5 28.5t120.5 80.5t81 122t29 154q0 83 -29 153.5t-81 122t-120.5 80t-148.5 28.5q-79 0 -148 -28.5t-120.5 -80t-80.5 -121.5t-29 -154t29 -154t81 -122t120.5 -80.5t147.5 -28.5zM439 79q-81 0 -144.5 39.5t-99.5 106t-36 148.5t36 148t99 105.5
t145 39.5t145 -39.5t99 -105.5t36 -148t-36 -148.5t-99 -106t-145 -39.5zM440 -205q26 0 44 18t18 45q0 26 -18 44t-44 18q-27 0 -45 -18t-18 -44t18 -44.5t45 -18.5z" />
    <glyph glyph-name="uni1ECD" unicode="&#x1ecd;" horiz-adv-x="654" 
d="M328 -12q76 0 139 36t100.5 100t37.5 146q0 81 -36.5 144.5t-99.5 100t-141 36.5q-79 0 -142 -36.5t-99.5 -100t-36.5 -144.5t37 -145t100 -100.5t141 -36.5zM328 78q-51 0 -91.5 25t-64.5 68.5t-24 98.5t24 98t64.5 68t91.5 25q50 0 90.5 -25t64 -68t23.5 -98
t-23.5 -98.5t-64 -68.5t-90.5 -25zM328 -205q26 0 44 18t18 45q0 26 -18 44t-44 18q-27 0 -45 -18t-18 -44t18 -44.5t45 -18.5z" />
    <glyph glyph-name="uni1ECE" unicode="&#x1ece;" horiz-adv-x="878" 
d="M439 -12q80 0 148.5 28.5t120.5 80.5t81 122t29 154q0 83 -29 153.5t-81 122t-120.5 80t-148.5 28.5q-79 0 -148 -28.5t-120.5 -80t-80.5 -121.5t-29 -154t29 -154t81 -122t120.5 -80.5t147.5 -28.5zM439 79q-81 0 -144.5 39.5t-99.5 106t-36 148.5t36 148t99 105.5
t145 39.5t145 -39.5t99 -105.5t36 -148t-36 -148.5t-99 -106t-145 -39.5zM416 797q56 22 82.5 52t26.5 66q0 41 -32 66.5t-84 25.5q-13 0 -28.5 -2t-26.5 -7v-51q18 6 38 6q31 0 46 -14t15 -35q0 -42 -58 -69z" />
    <glyph glyph-name="uni1ECF" unicode="&#x1ecf;" horiz-adv-x="654" 
d="M328 -12q76 0 139 36t100.5 100t37.5 146q0 81 -36.5 144.5t-99.5 100t-141 36.5q-79 0 -142 -36.5t-99.5 -100t-36.5 -144.5t37 -145t100 -100.5t141 -36.5zM328 78q-51 0 -91.5 25t-64.5 68.5t-24 98.5t24 98t64.5 68t91.5 25q50 0 90.5 -25t64 -68t23.5 -98
t-23.5 -98.5t-64 -68.5t-90.5 -25zM304 590q56 22 82.5 52t26.5 66q0 41 -32 66.5t-84 25.5q-13 0 -28.5 -2t-26.5 -7v-51q18 6 38 6q31 0 46 -14t15 -35q0 -42 -58 -69z" />
    <glyph glyph-name="uni1ED0" unicode="&#x1ed0;" horiz-adv-x="878" 
d="M439 -12q80 0 148.5 28.5t120.5 80.5t81 122t29 154q0 83 -29 153.5t-81 122t-120.5 80t-148.5 28.5q-79 0 -148 -28.5t-120.5 -80t-80.5 -121.5t-29 -154t29 -154t81 -122t120.5 -80.5t147.5 -28.5zM439 79q-81 0 -144.5 39.5t-99.5 106t-36 148.5t36 148t99 105.5
t145 39.5t145 -39.5t99 -105.5t36 -148t-36 -148.5t-99 -106t-145 -39.5zM519 964h83l60 94h-96zM277 847h86l76 94l78 -94h85l-116 144h-95z" />
    <glyph glyph-name="uni1ED1" unicode="&#x1ed1;" horiz-adv-x="654" 
d="M328 -12q76 0 139 36t100.5 100t37.5 146q0 81 -36.5 144.5t-99.5 100t-141 36.5q-79 0 -142 -36.5t-99.5 -100t-36.5 -144.5t37 -145t100 -100.5t141 -36.5zM328 78q-51 0 -91.5 25t-64.5 68.5t-24 98.5t24 98t64.5 68t91.5 25q50 0 90.5 -25t64 -68t23.5 -98
t-23.5 -98.5t-64 -68.5t-90.5 -25zM407 757h83l60 94h-96zM165 640h86l76 94l78 -94h85l-116 144h-95z" />
    <glyph glyph-name="uni1ED2" unicode="&#x1ed2;" horiz-adv-x="878" 
d="M439 -12q80 0 148.5 28.5t120.5 80.5t81 122t29 154q0 83 -29 153.5t-81 122t-120.5 80t-148.5 28.5q-79 0 -148 -28.5t-120.5 -80t-80.5 -121.5t-29 -154t29 -154t81 -122t120.5 -80.5t147.5 -28.5zM439 79q-81 0 -144.5 39.5t-99.5 106t-36 148.5t36 148t99 105.5
t145 39.5t145 -39.5t99 -105.5t36 -148t-36 -148.5t-99 -106t-145 -39.5zM542 964h77l-47 91h-88zM277 847h86l76 94l78 -94h85l-116 144h-95z" />
    <glyph glyph-name="uni1ED3" unicode="&#x1ed3;" horiz-adv-x="654" 
d="M328 -12q76 0 139 36t100.5 100t37.5 146q0 81 -36.5 144.5t-99.5 100t-141 36.5q-79 0 -142 -36.5t-99.5 -100t-36.5 -144.5t37 -145t100 -100.5t141 -36.5zM328 78q-51 0 -91.5 25t-64.5 68.5t-24 98.5t24 98t64.5 68t91.5 25q50 0 90.5 -25t64 -68t23.5 -98
t-23.5 -98.5t-64 -68.5t-90.5 -25zM430 757h77l-47 91h-88zM165 640h86l76 94l78 -94h85l-116 144h-95z" />
    <glyph glyph-name="uni1ED4" unicode="&#x1ed4;" horiz-adv-x="878" 
d="M439 -12q80 0 148.5 28.5t120.5 80.5t81 122t29 154q0 83 -29 153.5t-81 122t-120.5 80t-148.5 28.5q-79 0 -148 -28.5t-120.5 -80t-80.5 -121.5t-29 -154t29 -154t81 -122t120.5 -80.5t147.5 -28.5zM439 79q-81 0 -144.5 39.5t-99.5 106t-36 148.5t36 148t99 105.5
t145 39.5t145 -39.5t99 -105.5t36 -148t-36 -148.5t-99 -106t-145 -39.5zM565 933q56 22 82 52t26 66q0 41 -32 66.5t-83 25.5q-13 0 -28.5 -2t-27.5 -7v-51q20 6 38 6q32 0 47 -14t15 -35q0 -42 -58 -69zM277 847h86l76 94l78 -94h85l-116 144h-95z" />
    <glyph glyph-name="uni1ED5" unicode="&#x1ed5;" horiz-adv-x="654" 
d="M328 -12q76 0 139 36t100.5 100t37.5 146q0 81 -36.5 144.5t-99.5 100t-141 36.5q-79 0 -142 -36.5t-99.5 -100t-36.5 -144.5t37 -145t100 -100.5t141 -36.5zM328 78q-51 0 -91.5 25t-64.5 68.5t-24 98.5t24 98t64.5 68t91.5 25q50 0 90.5 -25t64 -68t23.5 -98
t-23.5 -98.5t-64 -68.5t-90.5 -25zM453 726q56 22 82 52t26 66q0 41 -32 66.5t-83 25.5q-13 0 -28.5 -2t-27.5 -7v-51q20 6 38 6q32 0 47 -14t15 -35q0 -42 -58 -69zM165 640h86l76 94l78 -94h85l-116 144h-95z" />
    <glyph glyph-name="uni1ED6" unicode="&#x1ed6;" horiz-adv-x="878" 
d="M439 -12q80 0 148.5 28.5t120.5 80.5t81 122t29 154q0 83 -29 153.5t-81 122t-120.5 80t-148.5 28.5q-79 0 -148 -28.5t-120.5 -80t-80.5 -121.5t-29 -154t29 -154t81 -122t120.5 -80.5t147.5 -28.5zM439 79q-81 0 -144.5 39.5t-99.5 106t-36 148.5t36 148t99 105.5
t145 39.5t145 -39.5t99 -105.5t36 -148t-36 -148.5t-99 -106t-145 -39.5zM502 1024q37 0 59 27t23 79h-61q-1 -18 -8.5 -29.5t-23.5 -11.5q-18 0 -32 11.5t-32 23t-48 11.5q-36 0 -59.5 -27t-25.5 -79h61q4 41 33 41q19 0 33 -11.5t32 -23t49 -11.5zM277 847h86l76 94
l78 -94h85l-116 144h-95z" />
    <glyph glyph-name="uni1ED7" unicode="&#x1ed7;" horiz-adv-x="654" 
d="M328 -12q76 0 139 36t100.5 100t37.5 146q0 81 -36.5 144.5t-99.5 100t-141 36.5q-79 0 -142 -36.5t-99.5 -100t-36.5 -144.5t37 -145t100 -100.5t141 -36.5zM328 78q-51 0 -91.5 25t-64.5 68.5t-24 98.5t24 98t64.5 68t91.5 25q50 0 90.5 -25t64 -68t23.5 -98
t-23.5 -98.5t-64 -68.5t-90.5 -25zM390 817q37 0 59 27t23 79h-61q-1 -18 -8.5 -29.5t-23.5 -11.5q-18 0 -32 11.5t-32 23t-48 11.5q-36 0 -59.5 -27t-25.5 -79h61q4 41 33 41q19 0 33 -11.5t32 -23t49 -11.5zM165 640h86l76 94l78 -94h85l-116 144h-95z" />
    <glyph glyph-name="uni1ED8" unicode="&#x1ed8;" horiz-adv-x="878" 
d="M439 -12q80 0 148.5 28.5t120.5 80.5t81 122t29 154q0 83 -29 153.5t-81 122t-120.5 80t-148.5 28.5q-79 0 -148 -28.5t-120.5 -80t-80.5 -121.5t-29 -154t29 -154t81 -122t120.5 -80.5t147.5 -28.5zM439 79q-81 0 -144.5 39.5t-99.5 106t-36 148.5t36 148t99 105.5
t145 39.5t145 -39.5t99 -105.5t36 -148t-36 -148.5t-99 -106t-145 -39.5zM440 -205q26 0 44 18t18 45q0 26 -18 44t-44 18q-27 0 -45 -18t-18 -44t18 -44.5t45 -18.5zM277 847h86l76 94l78 -94h85l-116 144h-95z" />
    <glyph glyph-name="uni1ED9" unicode="&#x1ed9;" horiz-adv-x="654" 
d="M328 -12q76 0 139 36t100.5 100t37.5 146q0 81 -36.5 144.5t-99.5 100t-141 36.5q-79 0 -142 -36.5t-99.5 -100t-36.5 -144.5t37 -145t100 -100.5t141 -36.5zM328 78q-51 0 -91.5 25t-64.5 68.5t-24 98.5t24 98t64.5 68t91.5 25q50 0 90.5 -25t64 -68t23.5 -98
t-23.5 -98.5t-64 -68.5t-90.5 -25zM328 -205q26 0 44 18t18 45q0 26 -18 44t-44 18q-27 0 -45 -18t-18 -44t18 -44.5t45 -18.5zM165 640h86l76 94l78 -94h85l-116 144h-95z" />
    <glyph glyph-name="uni1EDA" unicode="&#x1eda;" horiz-adv-x="878" 
d="M439 -12q80 0 148.5 28.5t120.5 80.5t81 122t29 154q0 95 -38 173.5t-103 129.5q56 3 90 32.5t34 90.5q0 26 -7 47.5t-18 40.5h-100q9 -19 15.5 -39t6.5 -40q0 -34 -17 -42.5t-32 -8.5h-210q-79 0 -148 -28.5t-120.5 -80t-80.5 -121.5t-29 -154t29 -154t81 -122
t120.5 -80.5t147.5 -28.5zM439 79q-81 0 -144.5 39.5t-99.5 106t-36 148.5t36 148t99 105.5t145 39.5t145 -39.5t99 -105.5t36 -148t-36 -148.5t-99 -106t-145 -39.5zM399 847h80l92 144h-99z" />
    <glyph glyph-name="uni1EDB" unicode="&#x1edb;" horiz-adv-x="654" 
d="M328 -12q76 0 139 36t100.5 100t37.5 146q0 68 -26 124t-72 93q33 11 51.5 37.5t18.5 69.5q0 26 -7 46.5t-16 41.5h-87q8 -20 14.5 -39.5t6.5 -39.5q0 -34 -16.5 -43t-33.5 -9h-110q-79 0 -142 -36.5t-99.5 -100t-36.5 -144.5t37 -145t100 -100.5t141 -36.5zM328 78
q-51 0 -91.5 25t-64.5 68.5t-24 98.5t24 98t64.5 68t91.5 25q50 0 90.5 -25t64 -68t23.5 -98t-23.5 -98.5t-64 -68.5t-90.5 -25zM288 640h80l92 144h-99z" />
    <glyph glyph-name="uni1EDC" unicode="&#x1edc;" horiz-adv-x="878" 
d="M439 -12q80 0 148.5 28.5t120.5 80.5t81 122t29 154q0 95 -38 173.5t-103 129.5q56 3 90 32.5t34 90.5q0 26 -7 47.5t-18 40.5h-100q9 -19 15.5 -39t6.5 -40q0 -34 -17 -42.5t-32 -8.5h-210q-79 0 -148 -28.5t-120.5 -80t-80.5 -121.5t-29 -154t29 -154t81 -122
t120.5 -80.5t147.5 -28.5zM439 79q-81 0 -144.5 39.5t-99.5 106t-36 148.5t36 148t99 105.5t145 39.5t145 -39.5t99 -105.5t36 -148t-36 -148.5t-99 -106t-145 -39.5zM399 847h80l-73 144h-99z" />
    <glyph glyph-name="uni1EDD" unicode="&#x1edd;" horiz-adv-x="654" 
d="M328 -12q76 0 139 36t100.5 100t37.5 146q0 68 -26 124t-72 93q33 11 51.5 37.5t18.5 69.5q0 26 -7 46.5t-16 41.5h-87q8 -20 14.5 -39.5t6.5 -39.5q0 -34 -16.5 -43t-33.5 -9h-110q-79 0 -142 -36.5t-99.5 -100t-36.5 -144.5t37 -145t100 -100.5t141 -36.5zM328 78
q-51 0 -91.5 25t-64.5 68.5t-24 98.5t24 98t64.5 68t91.5 25q50 0 90.5 -25t64 -68t23.5 -98t-23.5 -98.5t-64 -68.5t-90.5 -25zM287 640h80l-73 144h-99z" />
    <glyph glyph-name="uni1EDE" unicode="&#x1ede;" horiz-adv-x="878" 
d="M439 -12q80 0 148.5 28.5t120.5 80.5t81 122t29 154q0 95 -38 173.5t-103 129.5q56 3 90 32.5t34 90.5q0 26 -7 47.5t-18 40.5h-100q9 -19 15.5 -39t6.5 -40q0 -34 -17 -42.5t-32 -8.5h-210q-79 0 -148 -28.5t-120.5 -80t-80.5 -121.5t-29 -154t29 -154t81 -122
t120.5 -80.5t147.5 -28.5zM439 79q-81 0 -144.5 39.5t-99.5 106t-36 148.5t36 148t99 105.5t145 39.5t145 -39.5t99 -105.5t36 -148t-36 -148.5t-99 -106t-145 -39.5zM416 797q56 22 82.5 52t26.5 66q0 41 -32 66.5t-84 25.5q-13 0 -28.5 -2t-26.5 -7v-51q18 6 38 6
q31 0 46 -14t15 -35q0 -42 -58 -69z" />
    <glyph glyph-name="uni1EDF" unicode="&#x1edf;" horiz-adv-x="654" 
d="M328 -12q76 0 139 36t100.5 100t37.5 146q0 68 -26 124t-72 93q33 11 51.5 37.5t18.5 69.5q0 26 -7 46.5t-16 41.5h-87q8 -20 14.5 -39.5t6.5 -39.5q0 -34 -16.5 -43t-33.5 -9h-110q-79 0 -142 -36.5t-99.5 -100t-36.5 -144.5t37 -145t100 -100.5t141 -36.5zM328 78
q-51 0 -91.5 25t-64.5 68.5t-24 98.5t24 98t64.5 68t91.5 25q50 0 90.5 -25t64 -68t23.5 -98t-23.5 -98.5t-64 -68.5t-90.5 -25zM304 590q56 22 82.5 52t26.5 66q0 41 -32 66.5t-84 25.5q-13 0 -28.5 -2t-26.5 -7v-51q18 6 38 6q31 0 46 -14t15 -35q0 -42 -58 -69z" />
    <glyph glyph-name="uni1EE0" unicode="&#x1ee0;" horiz-adv-x="878" 
d="M439 -12q80 0 148.5 28.5t120.5 80.5t81 122t29 154q0 95 -38 173.5t-103 129.5q56 3 90 32.5t34 90.5q0 26 -7 47.5t-18 40.5h-100q9 -19 15.5 -39t6.5 -40q0 -34 -17 -42.5t-32 -8.5h-210q-79 0 -148 -28.5t-120.5 -80t-80.5 -121.5t-29 -154t29 -154t81 -122
t120.5 -80.5t147.5 -28.5zM439 79q-81 0 -144.5 39.5t-99.5 106t-36 148.5t36 148t99 105.5t145 39.5t145 -39.5t99 -105.5t36 -148t-36 -148.5t-99 -106t-145 -39.5zM504 878q38 0 60 27.5t23 80.5h-64q-1 -17 -9 -29t-23 -12q-18 0 -32 11.5t-32 23t-48 11.5
q-37 0 -61 -27.5t-25 -81.5h63q5 42 33 42q19 0 33 -11.5t32.5 -23t49.5 -11.5z" />
    <glyph glyph-name="uni1EE1" unicode="&#x1ee1;" horiz-adv-x="654" 
d="M328 -12q76 0 139 36t100.5 100t37.5 146q0 68 -26 124t-72 93q33 11 51.5 37.5t18.5 69.5q0 26 -7 46.5t-16 41.5h-87q8 -20 14.5 -39.5t6.5 -39.5q0 -34 -16.5 -43t-33.5 -9h-110q-79 0 -142 -36.5t-99.5 -100t-36.5 -144.5t37 -145t100 -100.5t141 -36.5zM328 78
q-51 0 -91.5 25t-64.5 68.5t-24 98.5t24 98t64.5 68t91.5 25q50 0 90.5 -25t64 -68t23.5 -98t-23.5 -98.5t-64 -68.5t-90.5 -25zM392 671q38 0 60 27.5t23 80.5h-64q-1 -17 -9 -29t-23 -12q-18 0 -32 11.5t-32 23t-48 11.5q-37 0 -61 -27.5t-25 -81.5h63q5 42 33 42
q19 0 33 -11.5t32.5 -23t49.5 -11.5z" />
    <glyph glyph-name="uni1EE2" unicode="&#x1ee2;" horiz-adv-x="878" 
d="M439 -12q80 0 148.5 28.5t120.5 80.5t81 122t29 154q0 95 -38 173.5t-103 129.5q56 3 90 32.5t34 90.5q0 26 -7 47.5t-18 40.5h-100q9 -19 15.5 -39t6.5 -40q0 -34 -17 -42.5t-32 -8.5h-210q-79 0 -148 -28.5t-120.5 -80t-80.5 -121.5t-29 -154t29 -154t81 -122
t120.5 -80.5t147.5 -28.5zM439 79q-81 0 -144.5 39.5t-99.5 106t-36 148.5t36 148t99 105.5t145 39.5t145 -39.5t99 -105.5t36 -148t-36 -148.5t-99 -106t-145 -39.5zM440 -205q26 0 44 18t18 45q0 26 -18 44t-44 18q-27 0 -45 -18t-18 -44t18 -44.5t45 -18.5z" />
    <glyph glyph-name="uni1EE3" unicode="&#x1ee3;" horiz-adv-x="654" 
d="M328 -12q76 0 139 36t100.5 100t37.5 146q0 68 -26 124t-72 93q33 11 51.5 37.5t18.5 69.5q0 26 -7 46.5t-16 41.5h-87q8 -20 14.5 -39.5t6.5 -39.5q0 -34 -16.5 -43t-33.5 -9h-110q-79 0 -142 -36.5t-99.5 -100t-36.5 -144.5t37 -145t100 -100.5t141 -36.5zM328 78
q-51 0 -91.5 25t-64.5 68.5t-24 98.5t24 98t64.5 68t91.5 25q50 0 90.5 -25t64 -68t23.5 -98t-23.5 -98.5t-64 -68.5t-90.5 -25zM328 -205q26 0 44 18t18 45q0 26 -18 44t-44 18q-27 0 -45 -18t-18 -44t18 -44.5t45 -18.5z" />
    <glyph glyph-name="uni1EE4" unicode="&#x1ee4;" horiz-adv-x="706" 
d="M353 -12q82 0 143.5 34t96.5 93.5t35 135.5v494h-99v-492q0 -51 -22.5 -90.5t-62 -61.5t-91.5 -22t-91.5 22t-62 61.5t-22.5 90.5v492h-99v-494q0 -76 35 -135.5t97 -93.5t143 -34zM354 -205q26 0 44 18t18 45q0 26 -18 44t-44 18q-27 0 -45 -18t-18 -44t18 -44.5
t45 -18.5z" />
    <glyph glyph-name="uni1EE5" unicode="&#x1ee5;" 
d="M263 -12q50 0 90 20.5t64 57.5v-66h91v539h-94v-319q0 -66 -36.5 -104t-93.5 -38q-58 0 -94 36.5t-36 97.5v327h-93v-337q0 -63 26 -111.5t71.5 -75.5t104.5 -27zM291 -205q26 0 44 18t18 45q0 26 -18 44t-44 18q-27 0 -45 -18t-18 -44t18 -44.5t45 -18.5z" />
    <glyph glyph-name="uni1EE6" unicode="&#x1ee6;" horiz-adv-x="706" 
d="M353 -12q82 0 143.5 34t96.5 93.5t35 135.5v494h-99v-492q0 -51 -22.5 -90.5t-62 -61.5t-91.5 -22t-91.5 22t-62 61.5t-22.5 90.5v492h-99v-494q0 -76 35 -135.5t97 -93.5t143 -34zM330 797q56 22 82.5 52t26.5 66q0 41 -32 66.5t-84 25.5q-13 0 -28.5 -2t-26.5 -7v-51
q18 6 38 6q31 0 46 -14t15 -35q0 -42 -58 -69z" />
    <glyph glyph-name="uni1EE7" unicode="&#x1ee7;" 
d="M263 -12q50 0 90 20.5t64 57.5v-66h91v539h-94v-319q0 -66 -36.5 -104t-93.5 -38q-58 0 -94 36.5t-36 97.5v327h-93v-337q0 -63 26 -111.5t71.5 -75.5t104.5 -27zM267 590q56 22 82.5 52t26.5 66q0 41 -32 66.5t-84 25.5q-13 0 -28.5 -2t-26.5 -7v-51q18 6 38 6
q31 0 46 -14t15 -35q0 -42 -58 -69z" />
    <glyph glyph-name="uni1EE8" unicode="&#x1ee8;" horiz-adv-x="706" 
d="M353 -12q82 0 143.5 34t96.5 93.5t35 135.5v413h5q61 0 98 29.5t37 93.5q0 26 -6.5 47.5t-17.5 40.5h-101q10 -19 16.5 -39t6.5 -40q0 -34 -17 -42.5t-33 -8.5h-87v-492q0 -51 -22.5 -90.5t-62 -61.5t-91.5 -22t-91.5 22t-62 61.5t-22.5 90.5v492h-99v-494
q0 -76 35 -135.5t97 -93.5t143 -34zM313 847h80l92 144h-99z" />
    <glyph glyph-name="uni1EE9" unicode="&#x1ee9;" horiz-adv-x="617" 
d="M263 -12q50 0 90 20.5t64 57.5v-66h91v469q45 5 72 33t27 80q0 26 -6.5 46.5t-16.5 41.5h-87q9 -20 15.5 -39.5t6.5 -39.5q0 -34 -16.5 -43t-33.5 -9h-55v-319q0 -66 -36.5 -104t-93.5 -38q-58 0 -94 36.5t-36 97.5v327h-93v-337q0 -63 26 -111.5t71.5 -75.5t104.5 -27z
M250 640h80l92 144h-99z" />
    <glyph glyph-name="uni1EEA" unicode="&#x1eea;" horiz-adv-x="706" 
d="M353 -12q82 0 143.5 34t96.5 93.5t35 135.5v413h5q61 0 98 29.5t37 93.5q0 26 -6.5 47.5t-17.5 40.5h-101q10 -19 16.5 -39t6.5 -40q0 -34 -17 -42.5t-33 -8.5h-87v-492q0 -51 -22.5 -90.5t-62 -61.5t-91.5 -22t-91.5 22t-62 61.5t-22.5 90.5v492h-99v-494
q0 -76 35 -135.5t97 -93.5t143 -34zM313 847h80l-73 144h-99z" />
    <glyph glyph-name="uni1EEB" unicode="&#x1eeb;" horiz-adv-x="617" 
d="M263 -12q50 0 90 20.5t64 57.5v-66h91v469q45 5 72 33t27 80q0 26 -6.5 46.5t-16.5 41.5h-87q9 -20 15.5 -39.5t6.5 -39.5q0 -34 -16.5 -43t-33.5 -9h-55v-319q0 -66 -36.5 -104t-93.5 -38q-58 0 -94 36.5t-36 97.5v327h-93v-337q0 -63 26 -111.5t71.5 -75.5t104.5 -27z
M250 640h80l-73 144h-99z" />
    <glyph glyph-name="uni1EEC" unicode="&#x1eec;" horiz-adv-x="706" 
d="M353 -12q82 0 143.5 34t96.5 93.5t35 135.5v413h5q61 0 98 29.5t37 93.5q0 26 -6.5 47.5t-17.5 40.5h-101q10 -19 16.5 -39t6.5 -40q0 -34 -17 -42.5t-33 -8.5h-87v-492q0 -51 -22.5 -90.5t-62 -61.5t-91.5 -22t-91.5 22t-62 61.5t-22.5 90.5v492h-99v-494
q0 -76 35 -135.5t97 -93.5t143 -34zM330 797q56 22 82.5 52t26.5 66q0 41 -32 66.5t-84 25.5q-13 0 -28.5 -2t-26.5 -7v-51q18 6 38 6q31 0 46 -14t15 -35q0 -42 -58 -69z" />
    <glyph glyph-name="uni1EED" unicode="&#x1eed;" horiz-adv-x="617" 
d="M263 -12q50 0 90 20.5t64 57.5v-66h91v469q45 5 72 33t27 80q0 26 -6.5 46.5t-16.5 41.5h-87q9 -20 15.5 -39.5t6.5 -39.5q0 -34 -16.5 -43t-33.5 -9h-55v-319q0 -66 -36.5 -104t-93.5 -38q-58 0 -94 36.5t-36 97.5v327h-93v-337q0 -63 26 -111.5t71.5 -75.5t104.5 -27z
M267 590q56 22 82.5 52t26.5 66q0 41 -32 66.5t-84 25.5q-13 0 -28.5 -2t-26.5 -7v-51q18 6 38 6q31 0 46 -14t15 -35q0 -42 -58 -69z" />
    <glyph glyph-name="uni1EEE" unicode="&#x1eee;" horiz-adv-x="706" 
d="M353 -12q82 0 143.5 34t96.5 93.5t35 135.5v413h5q61 0 98 29.5t37 93.5q0 26 -6.5 47.5t-17.5 40.5h-101q10 -19 16.5 -39t6.5 -40q0 -34 -17 -42.5t-33 -8.5h-87v-492q0 -51 -22.5 -90.5t-62 -61.5t-91.5 -22t-91.5 22t-62 61.5t-22.5 90.5v492h-99v-494
q0 -76 35 -135.5t97 -93.5t143 -34zM418 878q38 0 60 27.5t23 80.5h-64q-1 -17 -9 -29t-23 -12q-18 0 -32 11.5t-32 23t-48 11.5q-37 0 -61 -27.5t-25 -81.5h63q5 42 33 42q19 0 33 -11.5t32.5 -23t49.5 -11.5z" />
    <glyph glyph-name="uni1EEF" unicode="&#x1eef;" horiz-adv-x="617" 
d="M263 -12q50 0 90 20.5t64 57.5v-66h91v469q45 5 72 33t27 80q0 26 -6.5 46.5t-16.5 41.5h-87q9 -20 15.5 -39.5t6.5 -39.5q0 -34 -16.5 -43t-33.5 -9h-55v-319q0 -66 -36.5 -104t-93.5 -38q-58 0 -94 36.5t-36 97.5v327h-93v-337q0 -63 26 -111.5t71.5 -75.5t104.5 -27z
M355 671q38 0 60 27.5t23 80.5h-64q-1 -17 -9 -29t-23 -12q-18 0 -32 11.5t-32 23t-48 11.5q-37 0 -61 -27.5t-25 -81.5h63q5 42 33 42q19 0 33 -11.5t32.5 -23t49.5 -11.5z" />
    <glyph glyph-name="uni1EF0" unicode="&#x1ef0;" horiz-adv-x="706" 
d="M353 -12q82 0 143.5 34t96.5 93.5t35 135.5v413h5q61 0 98 29.5t37 93.5q0 26 -6.5 47.5t-17.5 40.5h-101q10 -19 16.5 -39t6.5 -40q0 -34 -17 -42.5t-33 -8.5h-87v-492q0 -51 -22.5 -90.5t-62 -61.5t-91.5 -22t-91.5 22t-62 61.5t-22.5 90.5v492h-99v-494
q0 -76 35 -135.5t97 -93.5t143 -34zM354 -205q26 0 44 18t18 45q0 26 -18 44t-44 18q-27 0 -45 -18t-18 -44t18 -44.5t45 -18.5z" />
    <glyph glyph-name="uni1EF1" unicode="&#x1ef1;" horiz-adv-x="617" 
d="M263 -12q50 0 90 20.5t64 57.5v-66h91v469q45 5 72 33t27 80q0 26 -6.5 46.5t-16.5 41.5h-87q9 -20 15.5 -39.5t6.5 -39.5q0 -34 -16.5 -43t-33.5 -9h-55v-319q0 -66 -36.5 -104t-93.5 -38q-58 0 -94 36.5t-36 97.5v327h-93v-337q0 -63 26 -111.5t71.5 -75.5t104.5 -27z
M291 -205q26 0 44 18t18 45q0 26 -18 44t-44 18q-27 0 -45 -18t-18 -44t18 -44.5t45 -18.5z" />
    <glyph glyph-name="Ygrave" unicode="&#x1ef2;" horiz-adv-x="635" 
d="M269 0h99v341l256 404h-111l-195 -308l-196 308h-111l258 -404v-341zM278 847h80l-73 144h-99z" />
    <glyph glyph-name="ygrave" unicode="&#x1ef3;" horiz-adv-x="553" 
d="M101 -220q53 0 90.5 21t64 56.5t43.5 78.5l243 603h-103l-163 -421l-164 421h-101l214 -540l-16 -39q-22 -50 -46.5 -71t-71.5 -21q-16 0 -32.5 2.5t-27.5 4.5v-83q16 -7 34 -9.5t36 -2.5zM236 640h80l-73 144h-99z" />
    <glyph glyph-name="uni1EF4" unicode="&#x1ef4;" horiz-adv-x="635" 
d="M269 0h99v341l256 404h-111l-195 -308l-196 308h-111l258 -404v-341zM319 -205q26 0 44 18t18 45q0 26 -18 44t-44 18q-27 0 -45 -18t-18 -44t18 -44.5t45 -18.5z" />
    <glyph glyph-name="uni1EF5" unicode="&#x1ef5;" horiz-adv-x="553" 
d="M101 -220q53 0 90.5 21t64 56.5t43.5 78.5l243 603h-103l-163 -421l-164 421h-101l214 -540l-16 -39q-22 -50 -46.5 -71t-71.5 -21q-16 0 -32.5 2.5t-27.5 4.5v-83q16 -7 34 -9.5t36 -2.5zM503 -105q26 0 44 18t18 45q0 26 -18 44t-44 18q-27 0 -45 -18t-18 -44t18 -44.5
t45 -18.5z" />
    <glyph glyph-name="uni1EF6" unicode="&#x1ef6;" horiz-adv-x="635" 
d="M269 0h99v341l256 404h-111l-195 -308l-196 308h-111l258 -404v-341zM295 797q56 22 82.5 52t26.5 66q0 41 -32 66.5t-84 25.5q-13 0 -28.5 -2t-26.5 -7v-51q18 6 38 6q31 0 46 -14t15 -35q0 -42 -58 -69z" />
    <glyph glyph-name="uni1EF7" unicode="&#x1ef7;" horiz-adv-x="553" 
d="M101 -220q53 0 90.5 21t64 56.5t43.5 78.5l243 603h-103l-163 -421l-164 421h-101l214 -540l-16 -39q-22 -50 -46.5 -71t-71.5 -21q-16 0 -32.5 2.5t-27.5 4.5v-83q16 -7 34 -9.5t36 -2.5zM253 590q56 22 82.5 52t26.5 66q0 41 -32 66.5t-84 25.5q-13 0 -28.5 -2
t-26.5 -7v-51q18 6 38 6q31 0 46 -14t15 -35q0 -42 -58 -69z" />
    <glyph glyph-name="uni1EF8" unicode="&#x1ef8;" horiz-adv-x="635" 
d="M269 0h99v341l256 404h-111l-195 -308l-196 308h-111l258 -404v-341zM383 878q38 0 60 27.5t23 80.5h-64q-1 -17 -9 -29t-23 -12q-18 0 -32 11.5t-32 23t-48 11.5q-37 0 -61 -27.5t-25 -81.5h63q5 42 33 42q19 0 33 -11.5t32.5 -23t49.5 -11.5z" />
    <glyph glyph-name="uni1EF9" unicode="&#x1ef9;" horiz-adv-x="553" 
d="M101 -220q53 0 90.5 21t64 56.5t43.5 78.5l243 603h-103l-163 -421l-164 421h-101l214 -540l-16 -39q-22 -50 -46.5 -71t-71.5 -21q-16 0 -32.5 2.5t-27.5 4.5v-83q16 -7 34 -9.5t36 -2.5zM341 671q38 0 60 27.5t23 80.5h-64q-1 -17 -9 -29t-23 -12q-18 0 -32 11.5
t-32 23t-48 11.5q-37 0 -61 -27.5t-25 -81.5h63q5 42 33 42q19 0 33 -11.5t32.5 -23t49.5 -11.5z" />
    <glyph glyph-name="uni2007" unicode="&#x2007;" horiz-adv-x="724" 
 />
    <glyph glyph-name="uni2008" unicode="&#x2008;" horiz-adv-x="317" 
 />
    <glyph glyph-name="uni2009" unicode="&#x2009;" horiz-adv-x="200" 
 />
    <glyph glyph-name="uni200A" unicode="&#x200a;" horiz-adv-x="143" 
 />
    <glyph glyph-name="uni200B" unicode="&#x200b;" horiz-adv-x="0" 
 />
    <glyph glyph-name="uni2010" unicode="&#x2010;" horiz-adv-x="532" 
d="M73 227h375v85h-375v-85z" />
    <glyph glyph-name="figuredash" unicode="&#x2012;" horiz-adv-x="597" 
d="M73 227h440v85h-440v-85z" />
    <glyph glyph-name="endash" unicode="&#x2013;" horiz-adv-x="597" 
d="M79 227h440v85h-440v-85z" />
    <glyph glyph-name="emdash" unicode="&#x2014;" horiz-adv-x="927" 
d="M79 227h770v85h-770v-85z" />
    <glyph glyph-name="uni2015" unicode="&#x2015;" horiz-adv-x="927" 
d="M73 227h770v85h-770v-85z" />
    <glyph glyph-name="quoteleft" unicode="&#x2018;" horiz-adv-x="299" 
d="M88 508h97v120h-49q3 33 20.5 56.5t48.5 31.5v41q-58 -13 -87.5 -56t-29.5 -108v-85z" />
    <glyph glyph-name="quoteright" unicode="&#x2019;" horiz-adv-x="299" 
d="M88 496q58 14 87.5 56.5t29.5 107.5v85h-97v-120h49q-3 -32 -20.5 -55.5t-48.5 -31.5v-42z" />
    <glyph glyph-name="quotesinglbase" unicode="&#x201a;" horiz-adv-x="299" 
d="M88 -129q58 14 87.5 56.5t29.5 107.5v85h-97v-120h49q-3 -32 -20.5 -55.5t-48.5 -31.5v-42z" />
    <glyph glyph-name="quotedblleft" unicode="&#x201c;" horiz-adv-x="467" 
d="M255 508h98v120h-49q2 33 20 56.5t49 31.5v41q-58 -13 -88 -56t-30 -108v-85zM88 508h97v120h-49q3 33 20.5 56.5t48.5 31.5v41q-58 -13 -87.5 -56t-29.5 -108v-85z" />
    <glyph glyph-name="quotedblright" unicode="&#x201d;" horiz-adv-x="467" 
d="M255 496q59 14 88.5 56.5t29.5 107.5v85h-98v-120h49q-3 -32 -20 -55.5t-49 -31.5v-42zM88 496q58 14 87.5 56.5t29.5 107.5v85h-97v-120h49q-3 -32 -20.5 -55.5t-48.5 -31.5v-42z" />
    <glyph glyph-name="quotedblbase" unicode="&#x201e;" horiz-adv-x="467" 
d="M88 -129q58 14 87.5 56.5t29.5 107.5v85h-97v-120h49q-3 -32 -20.5 -55.5t-48.5 -31.5v-42zM255 -129q59 14 88.5 56.5t29.5 107.5v85h-98v-120h49q-3 -32 -20 -55.5t-49 -31.5v-42z" />
    <glyph glyph-name="dagger" unicode="&#x2020;" horiz-adv-x="641" 
d="M272 -190h97v637h221v91h-221v207h-97v-207h-222v-91h222v-637z" />
    <glyph glyph-name="daggerdbl" unicode="&#x2021;" horiz-adv-x="670" 
d="M286 -190h98v207h221v91h-221v339h221v91h-221v207h-98v-207h-221v-91h221v-339h-221v-91h221v-207z" />
    <glyph glyph-name="bullet" unicode="&#x2022;" horiz-adv-x="463" 
d="M233 148q51 0 86 35.5t34 87.5q0 51 -34.5 86t-85.5 35q-52 0 -87.5 -35t-35.5 -86q0 -52 35.5 -87.5t87.5 -35.5z" />
    <glyph glyph-name="ellipsis" unicode="&#x2026;" horiz-adv-x="717" 
d="M110 0h97v120h-97v-120zM310 0h97v120h-97v-120zM510 0h97v120h-97v-120z" />
    <glyph glyph-name="perthousand" unicode="&#x2030;" horiz-adv-x="1436" 
d="M255 367q54 0 98 26.5t70 70.5t26 98t-26 98.5t-70 70.5t-98 26t-98.5 -26t-71 -70.5t-26.5 -98.5t26.5 -98t71 -70.5t98.5 -26.5zM143 0h111l608 745h-111zM255 449q-32 0 -57.5 16t-39.5 42t-14 55t14 55t39.5 42.5t57.5 16.5q33 0 57.5 -16.5t38 -42.5t13.5 -55
t-13.5 -55t-38 -42t-57.5 -16zM744 -12q54 0 98 26.5t70 70.5t26 98t-26 98.5t-70 70.5t-98 26t-98.5 -26t-71 -70.5t-26.5 -98.5t26.5 -98t71 -70.5t98.5 -26.5zM1181 -12q54 0 98 26.5t70.5 70.5t26.5 98t-26.5 98.5t-70.5 70.5t-98 26t-98.5 -26t-70.5 -70.5t-26 -98.5
t26 -98t70.5 -70.5t98.5 -26.5zM744 70q-32 0 -57.5 16t-39.5 42t-14 55t14 55t39.5 42.5t57.5 16.5q33 0 57.5 -16.5t38 -42.5t13.5 -55t-13.5 -55t-38 -42t-57.5 -16zM1181 70q-32 0 -57 16t-39 42t-14 55t14 55t39 42.5t57 16.5q33 0 57.5 -16.5t38.5 -42.5t14 -55
t-14 -55t-38.5 -42t-57.5 -16z" />
    <glyph glyph-name="minute" unicode="&#x2032;" horiz-adv-x="321" 
d="M117 505h79l14 240h-93v-240z" />
    <glyph glyph-name="second" unicode="&#x2033;" horiz-adv-x="483" 
d="M117 505h79l14 240h-93v-240zM279 505h80l13 240h-93v-240z" />
    <glyph glyph-name="guilsinglleft" unicode="&#x2039;" horiz-adv-x="330" 
d="M187 77h108l-152 192l152 193h-108l-153 -193z" />
    <glyph glyph-name="guilsinglright" unicode="&#x203a;" horiz-adv-x="330" 
d="M35 77h108l152 192l-152 193h-108l152 -193z" />
    <glyph glyph-name="fraction" unicode="&#x2044;" horiz-adv-x="211" 
d="M-163 0h90l446 745h-90z" />
    <glyph glyph-name="uni2070" unicode="&#x2070;" horiz-adv-x="501" 
d="M251 215q63 0 109.5 33.5t72.5 94.5t26 141t-26 140.5t-73 94.5t-110 34q-62 0 -109 -34t-73 -94.5t-26 -140.5t26.5 -140.5t73.5 -94.5t109 -34zM251 294q-56 0 -88.5 52t-32.5 138q0 88 32.5 138.5t87.5 50.5q57 0 89.5 -51.5t32.5 -137.5t-32.5 -138t-88.5 -52z" />
    <glyph glyph-name="uni2074" unicode="&#x2074;" horiz-adv-x="471" 
d="M279 223h84v117h74v72h-74v333h-89l-241 -333v-72h246v-117zM279 412h-159l159 224v-224z" />
    <glyph glyph-name="uni2075" unicode="&#x2075;" horiz-adv-x="438" 
d="M214 215q53 0 94.5 23t65 63t23.5 90q0 49 -21 88t-59 61.5t-89 22.5q-52 0 -86 -22l19 130h217v74h-280l-41 -289l71 -15q11 22 34.5 35t51.5 13q42 0 69 -28t27 -70q0 -43 -27 -70.5t-69 -27.5q-34 0 -62.5 18.5t-41.5 54.5l-75 -28q17 -58 67.5 -90.5t111.5 -32.5z
" />
    <glyph glyph-name="uni2076" unicode="&#x2076;" horiz-adv-x="420" 
d="M210 215q52 0 92 22.5t63.5 61.5t23.5 89q0 48 -21.5 85t-58.5 58.5t-84 21.5q-15 0 -28 -3l150 195h-104l-146 -191q-37 -48 -51 -87t-14 -80q0 -49 23 -88t63 -61.5t92 -22.5zM210 293q-38 0 -64.5 26.5t-26.5 66.5q0 41 26.5 67t64.5 26q39 0 65 -26t26 -67
q0 -40 -26 -66.5t-65 -26.5z" />
    <glyph glyph-name="uni2077" unicode="&#x2077;" horiz-adv-x="384" 
d="M52 223h96l216 448v74h-340v-74h249z" />
    <glyph glyph-name="uni2078" unicode="&#x2078;" horiz-adv-x="452" 
d="M225 215q56 0 97 21t64 57t23 80q0 88 -79 129q26 18 41.5 47t15.5 63q0 41 -21 73t-57.5 50t-83.5 18q-46 0 -82.5 -18.5t-57 -50t-20.5 -72.5q0 -34 15 -63.5t42 -46.5q-38 -20 -59 -52.5t-21 -75.5q0 -44 23 -80.5t64 -57.5t96 -21zM225 536q-32 0 -52.5 20.5
t-20.5 50.5q0 32 21 52t52 20q32 0 53 -20t21 -52q0 -30 -21 -50.5t-53 -20.5zM225 289q-42 0 -68.5 24t-26.5 63q0 38 26 62t69 24q44 0 70.5 -24t26.5 -62q0 -39 -27 -63t-70 -24z" />
    <glyph glyph-name="uni2079" unicode="&#x2079;" horiz-adv-x="420" 
d="M73 223h105l146 191q38 50 51.5 88.5t13.5 77.5q0 50 -23 89t-63.5 61.5t-92.5 22.5q-51 0 -91.5 -22.5t-63.5 -61.5t-23 -89q0 -47 21.5 -84.5t58.5 -59t84 -21.5q16 0 28 3zM210 488q-38 0 -64.5 26.5t-26.5 66.5q0 41 26.5 67t64.5 26q39 0 65 -26t26 -67
q0 -40 -26 -66.5t-65 -26.5z" />
    <glyph glyph-name="uni207A" unicode="&#x207a;" horiz-adv-x="474" 
d="M200 308h74v139h138v74h-138v137h-74v-137h-138v-74h138v-139z" />
    <glyph glyph-name="uni207B" unicode="&#x207b;" horiz-adv-x="549" 
d="M117 447h315v74h-315v-74z" />
    <glyph glyph-name="uni207C" unicode="&#x207c;" horiz-adv-x="549" 
d="M117 523h315v74h-315v-74zM117 354h315v74h-315v-74z" />
    <glyph glyph-name="uni207D" unicode="&#x207d;" horiz-adv-x="267" 
d="M171 109h70q-100 147 -100 317q0 168 100 319h-70q-118 -135 -118 -319q0 -182 118 -317z" />
    <glyph glyph-name="uni207E" unicode="&#x207e;" horiz-adv-x="267" 
d="M26 109h70q59 68 88 148.5t29 168.5q0 184 -117 319h-70q50 -74 75 -153.5t25 -165.5q0 -169 -100 -317z" />
    <glyph glyph-name="uni2080" unicode="&#x2080;" horiz-adv-x="501" 
d="M251 -8q63 0 109.5 33.5t72.5 94.5t26 141t-26 140.5t-73 94.5t-110 34q-62 0 -109 -34t-73 -94.5t-26 -140.5t26.5 -140.5t73.5 -94.5t109 -34zM251 71q-56 0 -88.5 52t-32.5 138q0 88 32.5 138.5t87.5 50.5q57 0 89.5 -51.5t32.5 -137.5t-32.5 -138t-88.5 -52z" />
    <glyph glyph-name="uni2081" unicode="&#x2081;" horiz-adv-x="306" 
d="M119 0h88v522h-188v-75h100v-447z" />
    <glyph glyph-name="uni2082" unicode="&#x2082;" horiz-adv-x="421" 
d="M34 0h349v75h-234l125 132q46 48 72.5 88.5t26.5 88.5q0 64 -46 105t-120 41q-63 0 -113 -36.5t-63 -99.5l77 -23q11 39 37 59.5t62 20.5q35 0 57 -20t22 -56q0 -22 -11 -42t-34.5 -47t-63.5 -70l-143 -151v-65z" />
    <glyph glyph-name="uni2083" unicode="&#x2083;" horiz-adv-x="432" 
d="M209 -8q54 0 96 23t66 62.5t24 88.5q0 63 -36 104t-96 50l111 132v70h-316v-74h218l-137 -160l20 -40q11 4 24.5 6.5t25.5 2.5q44 0 71.5 -24.5t27.5 -68.5t-27.5 -69t-71.5 -25q-36 0 -63.5 19.5t-41.5 55.5l-75 -28q16 -57 66.5 -91t113.5 -34z" />
    <glyph glyph-name="uni2084" unicode="&#x2084;" horiz-adv-x="471" 
d="M279 0h84v117h74v72h-74v333h-89l-241 -333v-72h246v-117zM279 189h-159l159 224v-224z" />
    <glyph glyph-name="uni2085" unicode="&#x2085;" horiz-adv-x="438" 
d="M214 -8q53 0 94.5 23t65 63t23.5 90q0 49 -21 88t-59 61.5t-89 22.5q-52 0 -86 -22l19 130h217v74h-280l-41 -289l71 -15q11 22 34.5 35t51.5 13q42 0 69 -28t27 -70q0 -43 -27 -70.5t-69 -27.5q-34 0 -62.5 18.5t-41.5 54.5l-75 -28q17 -58 67.5 -90.5t111.5 -32.5z" />
    <glyph glyph-name="uni2086" unicode="&#x2086;" horiz-adv-x="420" 
d="M210 -8q52 0 92 22.5t63.5 61.5t23.5 89q0 48 -21.5 85t-58.5 58.5t-84 21.5q-15 0 -28 -3l150 195h-104l-146 -191q-37 -48 -51 -87t-14 -80q0 -49 23 -88t63 -61.5t92 -22.5zM210 70q-38 0 -64.5 26.5t-26.5 66.5q0 41 26.5 67t64.5 26q39 0 65 -26t26 -67
q0 -40 -26 -66.5t-65 -26.5z" />
    <glyph glyph-name="uni2087" unicode="&#x2087;" horiz-adv-x="384" 
d="M52 0h96l216 448v74h-340v-74h249z" />
    <glyph glyph-name="uni2088" unicode="&#x2088;" horiz-adv-x="452" 
d="M225 -8q56 0 97 21t64 57t23 80q0 88 -79 129q26 18 41.5 47t15.5 63q0 41 -21 73t-57.5 50t-83.5 18q-46 0 -82.5 -18.5t-57 -50t-20.5 -72.5q0 -34 15 -63.5t42 -46.5q-38 -20 -59 -52.5t-21 -75.5q0 -44 23 -80.5t64 -57.5t96 -21zM225 313q-32 0 -52.5 20.5
t-20.5 50.5q0 32 21 52t52 20q32 0 53 -20t21 -52q0 -30 -21 -50.5t-53 -20.5zM225 66q-42 0 -68.5 24t-26.5 63q0 38 26 62t69 24q44 0 70.5 -24t26.5 -62q0 -39 -27 -63t-70 -24z" />
    <glyph glyph-name="uni2089" unicode="&#x2089;" horiz-adv-x="420" 
d="M73 0h105l146 191q38 50 51.5 88.5t13.5 77.5q0 50 -23 89t-63.5 61.5t-92.5 22.5q-51 0 -91.5 -22.5t-63.5 -61.5t-23 -89q0 -47 21.5 -84.5t58.5 -59t84 -21.5q16 0 28 3zM210 265q-38 0 -64.5 26.5t-26.5 66.5q0 41 26.5 67t64.5 26q39 0 65 -26t26 -67
q0 -40 -26 -66.5t-65 -26.5z" />
    <glyph glyph-name="uni208A" unicode="&#x208a;" horiz-adv-x="474" 
d="M200 85h74v139h138v74h-138v137h-74v-137h-138v-74h138v-139z" />
    <glyph glyph-name="uni208B" unicode="&#x208b;" horiz-adv-x="549" 
d="M117 224h315v74h-315v-74z" />
    <glyph glyph-name="uni208C" unicode="&#x208c;" horiz-adv-x="549" 
d="M117 300h315v74h-315v-74zM117 131h315v74h-315v-74z" />
    <glyph glyph-name="uni208D" unicode="&#x208d;" horiz-adv-x="267" 
d="M171 -114h70q-100 147 -100 317q0 168 100 319h-70q-118 -135 -118 -319q0 -182 118 -317z" />
    </font>
</defs>
</svg>
