<?xml version="1.0" standalone="no"?>
<!DOCTYPE svg PUBLIC "-//W3C//DTD SVG 1.1//EN" "http://www.w3.org/Graphics/SVG/1.1/DTD/svg11.dtd" >
<svg xmlns="http://www.w3.org/2000/svg" xmlns:xlink="http://www.w3.org/1999/xlink" version="1.1">
<metadata>
Created by FontForge 20170731 at Thu Dec 17 13:41:17 2020
 By Aleksey,,,
Copyright 2020 The Plus Jakarta Sans Project Authors (https://github.com/tokotype/PlusJakartaSans)
</metadata>
<defs>
<font id="PlusJakartaSans-Bold" horiz-adv-x="593" >
  <font-face 
    font-family="Plus Jakarta Sans"
    font-weight="700"
    font-stretch="normal"
    units-per-em="1000"
    panose-1="0 0 0 0 0 0 0 0 0 0"
    ascent="800"
    descent="-200"
    x-height="544"
    cap-height="745"
    bbox="-176 -376 1407 1207"
    underline-thickness="40"
    underline-position="-215"
    unicode-range="U+000D-FB02"
  />
<missing-glyph horiz-adv-x="640" 
d="M60 675h520v70h-520v-70zM60 450h520v70h-520v-70zM60 225h520v70h-520v-70zM60 0h520v70h-520v-70z" />
    <glyph glyph-name="fi" unicode="fi" horiz-adv-x="624" 
d="M124 0h131v427h190v-427h131v544h-321v18q0 41 24.5 60.5t67.5 19.5q16 0 34 -3v113q-23 5 -51 5q-94 0 -150 -51t-56 -144v-18h-96v-117h96v-427z" />
    <glyph glyph-name="fl" unicode="fl" horiz-adv-x="658" 
d="M124 0h131v427h212v-427h131v745h-131v-201h-212v18q0 41 24.5 60.5t67.5 19.5q16 0 34 -3v113q-23 5 -51 5q-94 0 -150 -51t-56 -144v-18h-96v-117h96v-427z" />
    <glyph glyph-name="f_f" unicode="ff" horiz-adv-x="802" 
d="M124 0h131v427h265v-427h131v427h121v117h-121v18q0 41 24.5 60.5t67.5 19.5q16 0 34 -3v113q-23 5 -51 5q-94 0 -150 -51t-56 -144v-18h-265v18q0 41 24.5 60.5t67.5 19.5q16 0 34 -3v113q-23 5 -51 5q-94 0 -150 -51t-56 -144v-18h-96v-117h96v-427z" />
    <glyph glyph-name="f_f_i" unicode="ffi" horiz-adv-x="1030" 
d="M124 0h131v427h275v-427h131v427h190v-427h131v544h-321v18q0 41 24.5 60.5t67.5 19.5q16 0 34 -3v113q-23 5 -51 5q-94 0 -150 -51t-56 -144v-18h-275v18q0 41 24.5 60.5t67.5 19.5q16 0 34 -3v113q-23 5 -51 5q-94 0 -150 -51t-56 -144v-18h-96v-117h96v-427z" />
    <glyph glyph-name="f_f_l" unicode="ffl" horiz-adv-x="1064" 
d="M124 0h131v427h275v-427h131v427h212v-427h131v745h-131v-201h-212v18q0 41 24.5 60.5t67.5 19.5q16 0 34 -3v113q-23 5 -51 5q-94 0 -150 -51t-56 -144v-18h-275v18q0 41 24.5 60.5t67.5 19.5q16 0 34 -3v113q-23 5 -51 5q-94 0 -150 -51t-56 -144v-18h-96v-117h96v-427
z" />
    <glyph glyph-name=".notdef" horiz-adv-x="640" 
d="M60 675h520v70h-520v-70zM60 450h520v70h-520v-70zM60 225h520v70h-520v-70zM60 0h520v70h-520v-70z" />
    <glyph glyph-name=".null" horiz-adv-x="0" 
 />
    <glyph glyph-name="nonmarkingreturn" horiz-adv-x="333" 
 />
    <glyph glyph-name="NULL" horiz-adv-x="0" 
 />
    <glyph glyph-name="NULL" horiz-adv-x="0" 
 />
    <glyph glyph-name="CR" unicode="&#xd;" horiz-adv-x="178" 
 />
    <glyph glyph-name="space" unicode=" " horiz-adv-x="178" 
 />
    <glyph glyph-name="exclam" unicode="!" horiz-adv-x="371" 
d="M128 226h115l9 519h-133zM119 0h133v140h-133v-140z" />
    <glyph glyph-name="quotedbl" unicode="&#x22;" horiz-adv-x="498" 
d="M113 462h85l16 283h-118zM300 462h85l16 283h-118z" />
    <glyph glyph-name="numbersign" unicode="#" horiz-adv-x="915" 
d="M135 0h133l47 164h164l-46 -164h132l47 164h153v115h-120l54 188h153v115h-120l47 163h-133l-46 -163h-165l47 163h-133l-47 -163h-152v-115h120l-55 -188h-153v-115h120zM348 279l54 188h164l-53 -188h-165z" />
    <glyph glyph-name="dollar" unicode="$" horiz-adv-x="647" 
d="M290 -100h85v90q66 6 116 35.5t78 75.5t28 105q0 149 -178 206l-44 14v203q77 -26 109 -108l112 50q-25 71 -83.5 119t-137.5 62v93h-85v-89q-66 -5 -116.5 -33.5t-78.5 -75.5t-28 -107q0 -73 44 -126.5t131 -81.5l48 -15v-202q-45 12 -81 45.5t-57 83.5l-113 -49
q27 -82 94 -136.5t157 -67.5v-91zM282 455q-40 13 -60.5 36.5t-20.5 54.5q0 36 24 60t65 30v-184zM385 286q39 -13 58.5 -34t19.5 -54q0 -35 -24 -58.5t-64 -30.5v180z" />
    <glyph glyph-name="percent" unicode="%" horiz-adv-x="1046" 
d="M270 367q55 0 99 26.5t70 70.5t26 98t-26 98.5t-70 70.5t-99 26t-100 -26t-71 -70.5t-26 -98.5t26 -98t71 -70.5t100 -26.5zM153 0h140l604 745h-140zM270 468q-43 0 -67.5 29t-24.5 65t24.5 65.5t67.5 29.5t66.5 -29.5t23.5 -65.5t-23.5 -65t-66.5 -29zM777 -12
q55 0 99.5 26.5t70.5 70.5t26 98t-26 98.5t-70.5 70.5t-99.5 26t-99.5 -26t-70.5 -70.5t-26 -98.5t26 -98t70.5 -70.5t99.5 -26.5zM777 89q-43 0 -67 29t-24 65t24 65.5t67 29.5t67 -29.5t24 -65.5t-24 -65t-67 -29z" />
    <glyph glyph-name="ampersand" unicode="&#x26;" horiz-adv-x="793" 
d="M308 -12q71 0 119.5 25t81.5 59l66 -72h157l-151 169l126 196h-137l-72 -104l-101 113q30 18 63 44t56.5 63.5t23.5 89.5q0 54 -26.5 96t-71 66t-99.5 24q-53 0 -99 -23.5t-73.5 -66.5t-27.5 -102q0 -52 21 -92.5t48 -73.5q-25 -15 -57 -42t-55.5 -68t-23.5 -99
q0 -61 29.5 -106.5t81.5 -70.5t121 -25zM267 571q0 35 22.5 57t54.5 22q33 0 54.5 -22.5t21.5 -55.5q0 -39 -29 -65.5t-69 -48.5q-20 23 -37.5 52t-17.5 61zM214 192q0 44 24.5 72.5t52.5 46.5l137 -150q-18 -24 -46 -42.5t-69 -18.5q-46 0 -72.5 24.5t-26.5 67.5z" />
    <glyph glyph-name="quotesingle" unicode="'" horiz-adv-x="311" 
d="M113 462h85l16 283h-118z" />
    <glyph glyph-name="parenleft" unicode="(" horiz-adv-x="379" 
d="M233 -170h110q-143 215 -143 458q0 244 143 457h-110q-169 -194 -169 -457q0 -260 169 -458z" />
    <glyph glyph-name="parenright" unicode=")" horiz-adv-x="379" 
d="M37 -170h110q168 197 168 458q0 262 -168 457h-110q142 -214 142 -457q0 -242 -142 -458z" />
    <glyph glyph-name="asterisk" unicode="*" horiz-adv-x="540" 
d="M196 364l74 99l73 -99l81 59l-73 99l115 39l-31 94l-115 -38v128h-100v-128l-115 38l-31 -94l115 -39l-73 -99z" />
    <glyph glyph-name="plus" unicode="+" horiz-adv-x="660" 
d="M274 0h113v194h193v113h-193v193h-113v-193h-194v-113h194v-194z" />
    <glyph glyph-name="comma" unicode="," horiz-adv-x="357" 
d="M103 -156q152 32 152 210v86h-132v-140h61q-12 -75 -81 -92v-64z" />
    <glyph glyph-name="hyphen" unicode="-" horiz-adv-x="600" 
d="M88 214h425v115h-425v-115z" />
    <glyph glyph-name="period" unicode="." horiz-adv-x="378" 
d="M123 0h132v140h-132v-140z" />
    <glyph glyph-name="slash" unicode="/" horiz-adv-x="506" 
d="M15 -40h144l332 825h-143z" />
    <glyph glyph-name="zero" unicode="0" horiz-adv-x="708" 
d="M354 -12q90 0 157 48.5t104.5 135t37.5 201.5t-37.5 201.5t-105 134.5t-157.5 48q-88 0 -155 -48t-104.5 -134t-37.5 -202q0 -115 37.5 -202t105 -135t155.5 -48zM354 112q-76 0 -119 70t-43 191q0 122 42.5 191t118.5 69q77 0 120.5 -69.5t43.5 -190.5t-43 -191
t-120 -70z" />
    <glyph glyph-name="one" unicode="1" horiz-adv-x="403" 
d="M173 0h136v745h-280v-116h144v-629z" />
    <glyph glyph-name="two" unicode="2" horiz-adv-x="597" 
d="M46 0h500v115h-323l175 184q71 74 104.5 131t33.5 118q0 62 -30.5 109t-85 73.5t-126.5 26.5q-60 0 -113.5 -23.5t-90.5 -67t-49 -102.5l119 -37q16 53 51 80.5t83 27.5q46 0 75.5 -27t29.5 -74q0 -28 -13 -55t-46 -65t-92 -100l-202 -212v-102z" />
    <glyph glyph-name="three" unicode="3" horiz-adv-x="611" 
d="M293 -12q78 0 138.5 33.5t95.5 90.5t35 129q0 88 -50.5 146.5t-133.5 71.5l153 179v107h-457v-115h304l-193 -220l31 -65q34 16 76 16q61 0 97.5 -33t36.5 -91t-37 -92.5t-96 -34.5q-49 0 -86.5 27t-55.5 78l-119 -42q14 -56 52.5 -98t93 -64.5t115.5 -22.5z" />
    <glyph glyph-name="four" unicode="4" horiz-adv-x="654" 
d="M378 0h134v164h109v114h-109v467h-142l-334 -467v-114h342v-164zM378 278h-208l208 299v-299z" />
    <glyph glyph-name="five" unicode="5" horiz-adv-x="615" 
d="M297 -12q77 0 137 33.5t94.5 91t34.5 129.5q0 71 -30 126.5t-84.5 87.5t-128.5 32q-71 0 -117 -29l23 171h309v115h-406l-59 -414l111 -25q14 32 45.5 49t70.5 17q57 0 93 -36t36 -94t-36 -95t-93 -37q-46 0 -84 25.5t-55 75.5l-118 -42q14 -56 52.5 -97t92 -62.5
t112.5 -21.5z" />
    <glyph glyph-name="six" unicode="6" horiz-adv-x="602" 
d="M302 -12q75 0 133.5 32.5t91.5 89t33 128.5q0 68 -30.5 121t-83.5 84t-121 31q-16 0 -30 -2l213 273h-162l-208 -270q-38 -50 -59 -91t-28.5 -77t-7.5 -72q0 -71 33 -127t91.5 -88t134.5 -32zM302 110q-52 0 -87.5 35.5t-35.5 90.5q0 56 35.5 90.5t87.5 34.5t87 -34.5
t35 -90.5q0 -55 -35.5 -90.5t-86.5 -35.5z" />
    <glyph glyph-name="seven" unicode="7" horiz-adv-x="559" 
d="M72 0h150l303 631v115h-494v-115h351z" />
    <glyph glyph-name="eight" unicode="8" horiz-adv-x="632" 
d="M316 -12q81 0 140.5 30.5t92 82t32.5 113.5t-28.5 107.5t-82.5 74.5q38 25 59 66.5t21 91.5q0 59 -30 105t-83 72t-121 26q-69 0 -122 -26.5t-83 -72t-30 -104.5q0 -49 21 -92t60 -66q-111 -58 -111 -181q0 -62 32.5 -114t92 -82.5t140.5 -30.5zM316 449
q-44 0 -71.5 27.5t-27.5 69.5q0 41 27.5 68.5t71.5 27.5t71 -27.5t27 -68.5q0 -42 -27 -69.5t-71 -27.5zM316 103q-58 0 -93 32t-35 84t35 83.5t93 31.5t93.5 -31.5t35.5 -83.5t-35.5 -84t-93.5 -32z" />
    <glyph glyph-name="nine" unicode="9" horiz-adv-x="602" 
d="M94 0h163l208 270q39 51 59.5 91.5t28 76.5t7.5 72q0 71 -33.5 127t-91.5 88t-134 32q-75 0 -133.5 -32t-92 -88.5t-33.5 -128.5q0 -68 30.5 -121.5t83.5 -84.5t121 -31q16 0 29 2zM301 385q-52 0 -87.5 34.5t-35.5 89.5q0 56 35.5 91t87.5 35t87 -35t35 -91
q0 -55 -35 -89.5t-87 -34.5z" />
    <glyph glyph-name="colon" unicode=":" horiz-adv-x="378" 
d="M123 404h132v140h-132v-140zM123 0h132v140h-132v-140z" />
    <glyph glyph-name="semicolon" unicode=";" horiz-adv-x="398" 
d="M143 404h132v140h-132v-140zM123 -156q152 32 152 210v86h-132v-140h61q-12 -75 -81 -92v-64z" />
    <glyph glyph-name="less" unicode="&#x3c;" horiz-adv-x="666" 
d="M562 13v133l-297 126l297 126v134l-458 -196v-128z" />
    <glyph glyph-name="equal" unicode="=" horiz-adv-x="712" 
d="M131 301h450v113h-450v-113zM131 59h450v112h-450v-112z" />
    <glyph glyph-name="greater" unicode="&#x3e;" horiz-adv-x="644" 
d="M104 13l458 195v128l-458 196v-134l297 -126l-297 -126v-133z" />
    <glyph glyph-name="question" unicode="?" horiz-adv-x="583" 
d="M211 226h125v12q0 44 24.5 77t55.5 63q25 25 48.5 50.5t39.5 56.5t16 71q0 51 -27 97t-78 75t-125 29q-62 0 -112.5 -23.5t-82 -65.5t-40.5 -98l122 -30q7 44 37.5 69.5t72.5 25.5q47 0 71.5 -24t24.5 -58q0 -36 -24.5 -62.5t-55.5 -57.5q-22 -22 -43.5 -49t-35 -60.5
t-13.5 -77.5v-20zM208 0h133v140h-133v-140z" />
    <glyph glyph-name="at" unicode="@" horiz-adv-x="927" 
d="M484 -98q122 0 216 59l-46 88q-74 -47 -170 -47q-94 0 -167.5 42.5t-116 116.5t-42.5 170q0 95 41 168.5t114.5 115.5t170.5 42q99 0 168 -42t105 -115t36 -165q0 -64 -16.5 -91t-48.5 -27q-24 0 -38 18.5t-14 54.5v254h-91v-42q-18 24 -53 38t-77 14q-61 0 -109.5 -30
t-76.5 -80t-28 -110q0 -61 28.5 -109.5t76 -76t105.5 -27.5q44 0 84.5 17t59.5 48q20 -34 56.5 -49.5t73.5 -15.5q79 0 128 56.5t49 153.5q0 93 -30 171t-85.5 135t-132.5 88.5t-171 31.5q-93 0 -172 -31t-137.5 -88t-91 -135t-32.5 -173q0 -94 32.5 -172.5t91 -136
t137.5 -88.5t173 -31zM462 217q-49 0 -83 34t-34 86q0 53 34 87t84 32q50 -1 82 -34.5t32 -84.5t-32.5 -85.5t-82.5 -34.5z" />
    <glyph glyph-name="A" unicode="A" horiz-adv-x="712" 
d="M11 0h147l54 160h288l53 -160h148l-257 745h-176zM251 280l105 314l105 -314h-210z" />
    <glyph glyph-name="B" unicode="B" horiz-adv-x="691" 
d="M72 0h314q125 0 195.5 60.5t70.5 167.5q0 51 -20 96t-70 77q31 28 45.5 62t14.5 72q0 98 -63 154t-173 56h-314v-745zM208 456v173h185q42 0 67 -23t25 -62t-25 -63.5t-67 -24.5h-185zM208 120v217h192q53 0 84.5 -29.5t31.5 -79.5q0 -49 -31.5 -78.5t-84.5 -29.5h-192z
" />
    <glyph glyph-name="C" unicode="C" horiz-adv-x="774" 
d="M422 -12q80 0 143.5 27t107.5 71.5t63 97.5l-122 57q-22 -56 -71.5 -92.5t-120.5 -36.5q-70 0 -123 33t-83 91.5t-30 136.5t30 136.5t83 91t123 32.5q71 0 120.5 -36.5t71.5 -92.5l122 57q-19 53 -63 97.5t-107.5 71.5t-143.5 27t-148 -28.5t-118 -80t-78 -122
t-28 -153.5t28 -153.5t78 -122.5t118 -80.5t148 -28.5z" />
    <glyph glyph-name="D" unicode="D" horiz-adv-x="740" 
d="M72 0h243q118 0 205.5 48t135.5 132t48 193q0 110 -48 193.5t-135 131t-206 47.5h-243v-745zM208 120v505h110q76 0 131.5 -31t86.5 -87.5t31 -133.5t-30.5 -134t-86.5 -88t-132 -31h-110z" />
    <glyph glyph-name="E" unicode="E" horiz-adv-x="595" 
d="M72 0h495v120h-359v194h339v120h-339v191h359v120h-495v-745z" />
    <glyph glyph-name="F" unicode="F" horiz-adv-x="586" 
d="M72 0h136v299h316v120h-316v206h361v120h-497v-745z" />
    <glyph glyph-name="G" unicode="G" horiz-adv-x="808" 
d="M425 -12q66 0 128 22.5t111.5 67t78.5 110t29 152.5v75h-350v-115h214v-3q0 -57 -29 -98.5t-77 -64t-105 -22.5q-70 0 -124 33t-84.5 91.5t-30.5 136.5t30 136.5t83 91t123 32.5q71 0 121 -36t72 -94l121 58q-19 53 -63 97.5t-107.5 71.5t-143.5 27t-148 -28.5t-118 -80
t-78 -122t-28 -153.5t28.5 -153.5t79.5 -122.5t119 -80.5t148 -28.5z" />
    <glyph glyph-name="H" unicode="H" horiz-adv-x="733" 
d="M72 0h136v300h317v-300h137v745h-137v-325h-317v325h-136v-745z" />
    <glyph glyph-name="I" unicode="I" horiz-adv-x="279" 
d="M72 0h136v745h-136v-745z" />
    <glyph glyph-name="J" unicode="J" horiz-adv-x="393" 
d="M39 0h43q74 0 128.5 29t84 81t29.5 121v514h-137v-519q0 -46 -28.5 -73.5t-76.5 -27.5h-43v-125z" />
    <glyph glyph-name="K" unicode="K" horiz-adv-x="679" 
d="M72 0h136v209l100 119l200 -328h160l-267 439l258 306h-171l-280 -331v331h-136v-745z" />
    <glyph glyph-name="L" unicode="L" horiz-adv-x="543" 
d="M72 0h455v120h-319v625h-136v-745z" />
    <glyph glyph-name="M" unicode="M" horiz-adv-x="893" 
d="M72 0h136v516l231 -316h16l230 306v-506h137v745h-130l-242 -336l-248 336h-130v-745z" />
    <glyph glyph-name="N" unicode="N" horiz-adv-x="741" 
d="M72 0h136v487l354 -487h107v745h-136v-478l-355 478h-106v-745z" />
    <glyph glyph-name="O" unicode="O" horiz-adv-x="878" 
d="M439 -12q83 0 154 29t124 81t82.5 122.5t29.5 152.5q0 83 -29.5 153t-82.5 121.5t-124 80.5t-154 29t-154 -29t-123.5 -80.5t-82 -121.5t-29.5 -153q0 -82 29.5 -152.5t82.5 -122.5t124 -81t153 -29zM439 112q-72 0 -129.5 34t-90.5 93t-33 134t33 133.5t90.5 92.5
t129.5 34q73 0 130 -34t90 -92.5t33 -133.5t-33 -134t-90 -93t-130 -34z" />
    <glyph glyph-name="P" unicode="P" horiz-adv-x="648" 
d="M72 0h136v275h142q76 0 134 27.5t91.5 80.5t33.5 127q0 76 -33 128t-91.5 79.5t-134.5 27.5h-278v-745zM208 395v230h144q55 0 88 -31t33 -84q0 -52 -33 -83.5t-88 -31.5h-144z" />
    <glyph glyph-name="Q" unicode="Q" horiz-adv-x="878" 
d="M439 -12q60 0 116 16l56 -94h145l-89 147q74 51 118 133t44 183q0 83 -29.5 153t-82.5 121.5t-124 80.5t-154 29t-154 -29t-123.5 -80.5t-82 -121.5t-29.5 -153q0 -82 29.5 -152.5t82.5 -122.5t124 -81t153 -29zM439 112q-72 0 -129.5 34t-90.5 93t-33 134t33 133.5
t90.5 92.5t129.5 34q73 0 130 -34t90 -92.5t33 -133.5q0 -65 -24.5 -117.5t-67.5 -87.5l-79 130h-142l109 -182q-24 -4 -49 -4z" />
    <glyph glyph-name="R" unicode="R" horiz-adv-x="661" 
d="M72 0h136v275h128l154 -275h154l-171 299q62 26 98.5 80t36.5 131q0 76 -33 128t-91.5 79.5t-134.5 27.5h-277v-745zM208 395v230h143q55 0 88 -31t33 -84q0 -52 -33 -83.5t-88 -31.5h-143z" />
    <glyph glyph-name="S" unicode="S" horiz-adv-x="647" 
d="M338 -12q77 0 135 28t91 77t33 113q0 149 -178 206l-137 43q-40 13 -60.5 36.5t-20.5 54.5q0 41 31.5 66.5t83.5 25.5q58 0 102 -30.5t66 -86.5l112 50q-30 84 -104.5 135t-175.5 51q-73 0 -129.5 -27.5t-88 -76.5t-31.5 -113q0 -73 44 -126.5t131 -81.5l143 -46
q39 -13 58.5 -34t19.5 -54q0 -41 -32.5 -66t-85.5 -25q-64 0 -115 36.5t-78 100.5l-113 -49q20 -62 63.5 -108.5t104 -72.5t131.5 -26z" />
    <glyph glyph-name="T" unicode="T" horiz-adv-x="542" 
d="M204 0h137v625h190v120h-520v-120h193v-625z" />
    <glyph glyph-name="U" unicode="U" horiz-adv-x="718" 
d="M359 -12q86 0 152.5 36t104.5 99t38 143v479h-136v-472q0 -47 -20.5 -83.5t-56 -57t-82.5 -20.5q-46 0 -82 20.5t-56.5 57t-20.5 83.5v472h-136v-479q0 -80 38 -143t104.5 -99t152.5 -36z" />
    <glyph glyph-name="V" unicode="V" horiz-adv-x="697" 
d="M271 0h156l259 745h-148l-189 -573l-190 573h-148z" />
    <glyph glyph-name="W" unicode="W" horiz-adv-x="1020" 
d="M211 0h156l143 536l143 -536h156l200 745h-146l-138 -560l-144 560h-141l-145 -560l-138 560h-146z" />
    <glyph glyph-name="X" unicode="X" horiz-adv-x="661" 
d="M11 0h156l164 252l163 -252h156l-243 375l241 370h-156l-161 -248l-162 248h-156l242 -370z" />
    <glyph glyph-name="Y" unicode="Y" horiz-adv-x="660" 
d="M262 0h137v331l250 414h-155l-164 -277l-164 277h-155l251 -415v-330z" />
    <glyph glyph-name="Z" unicode="Z" horiz-adv-x="571" 
d="M14 0h544v120h-370l360 518v107h-513v-120h340l-361 -518v-107z" />
    <glyph glyph-name="bracketleft" unicode="[" horiz-adv-x="416" 
d="M105 -170h260v115h-128v685h128v115h-260v-915z" />
    <glyph glyph-name="backslash" unicode="\" horiz-adv-x="506" 
d="M348 -40h143l-332 825h-144z" />
    <glyph glyph-name="bracketright" unicode="]" horiz-adv-x="416" 
d="M51 -170h260v915h-260v-115h128v-685h-128v-115z" />
    <glyph glyph-name="asciicircum" unicode="^" horiz-adv-x="604" 
d="M69 420h145l88 168l88 -168h145l-170 325h-125z" />
    <glyph glyph-name="underscore" unicode="_" horiz-adv-x="663" 
d="M88 -115h487v115h-487v-115z" />
    <glyph glyph-name="grave" unicode="`" horiz-adv-x="455" 
d="M218 640h115l-63 144h-147z" />
    <glyph glyph-name="a" unicode="a" horiz-adv-x="580" 
d="M226 -12q106 0 170 70v-58h124v362q0 57 -29 101t-79.5 68.5t-117.5 24.5q-82 0 -146 -39t-88 -103l107 -52q15 37 47 59.5t75 22.5q45 0 72.5 -23.5t27.5 -58.5v-18l-162 -26q-96 -16 -142 -61t-46 -113q0 -72 51 -114t136 -42zM175 149q0 57 77 72l137 23v-22
q0 -56 -38.5 -95t-100.5 -39q-33 0 -54 16.5t-21 44.5z" />
    <glyph glyph-name="b" unicode="b" horiz-adv-x="672" 
d="M358 -12q79 0 141 37.5t98 102t36 144.5t-36 144.5t-98 102t-140 37.5q-106 0 -167 -67v256h-131v-745h123v61q30 -35 75.5 -54t98.5 -19zM343 108q-43 0 -77.5 21t-54 58t-19.5 85t19.5 85t54 58t77.5 21q45 0 79.5 -21.5t54.5 -58.5t20 -84t-20 -84.5t-54.5 -58.5
t-79.5 -21z" />
    <glyph glyph-name="c" unicode="c" horiz-adv-x="608" 
d="M323 -12q59 0 109 20.5t86 57t52 82.5l-115 52q-16 -43 -50.5 -67.5t-81.5 -24.5q-43 0 -76.5 21t-52.5 58.5t-19 84.5q0 48 19 85t52.5 58t76.5 21q47 0 81.5 -25t50.5 -66l115 50q-17 48 -53 84.5t-86 56.5t-108 20q-81 0 -145.5 -37t-101.5 -101t-37 -145t37 -145.5
t101.5 -102t145.5 -37.5z" />
    <glyph glyph-name="d" unicode="d" horiz-adv-x="672" 
d="M314 -12q53 0 98 18.5t75 53.5v-60h124v745h-131v-256q-61 67 -167 67q-77 0 -139.5 -37.5t-98.5 -102t-36 -144.5t36 -144.5t98 -102t141 -37.5zM328 108q-44 0 -79 21t-54.5 58.5t-19.5 84.5t19.5 84t54.5 58.5t79 21.5t78.5 -21t54 -58t19.5 -85t-19.5 -85t-54 -58
t-78.5 -21z" />
    <glyph glyph-name="e" unicode="e" horiz-adv-x="612" 
d="M319 -12q83 0 145.5 37.5t87.5 95.5l-106 52q-18 -31 -49.5 -50.5t-76.5 -19.5q-59 0 -99 36t-46 96h392q4 11 5.5 25.5t1.5 29.5q0 73 -31 133t-90 96.5t-144 36.5q-76 0 -137.5 -37t-97 -100.5t-35.5 -145.5q0 -79 35 -144t98 -103t147 -38zM309 448q52 0 86.5 -31.5
t38.5 -81.5h-256q11 54 46.5 83.5t84.5 29.5z" />
    <glyph glyph-name="f" unicode="f" horiz-adv-x="406" 
d="M124 0h131v427h121v117h-121v18q0 41 24.5 60.5t67.5 19.5q16 0 34 -3v113q-23 5 -51 5q-94 0 -150 -51t-56 -144v-18h-96v-117h96v-427z" />
    <glyph glyph-name="g" unicode="g" horiz-adv-x="652" 
d="M325 -220q78 0 138 32t94 88t34 127v517h-124v-63q-62 75 -167 75q-75 0 -134 -34.5t-93 -94.5t-34 -137q0 -76 34 -137t94 -96t136 -35q99 0 157 64v-59q0 -60 -38 -93.5t-97 -33.5q-52 0 -87.5 23.5t-47.5 61.5l-122 -46q26 -72 95.5 -115.5t161.5 -43.5zM319 143
q-63 0 -103.5 41.5t-40.5 104.5q0 42 18.5 75.5t51.5 52.5t74 19q62 0 101.5 -41.5t39.5 -105.5t-39.5 -105t-101.5 -41z" />
    <glyph glyph-name="h" unicode="h" 
d="M61 0h131v319q0 53 31 85t79 32t79 -31.5t31 -85.5v-319h131v350q0 61 -26 107.5t-72.5 72.5t-106.5 26q-47 0 -85 -16.5t-61 -49.5v264h-131v-754z" />
    <glyph glyph-name="i" unicode="i" horiz-adv-x="252" 
d="M61 605h131v140h-131v-140zM61 0h131v544h-131v-544z" />
    <glyph glyph-name="j" unicode="j" horiz-adv-x="252" 
d="M61 605h131v140h-131v-140zM-14 -221q95 0 150.5 50t55.5 143v572h-131v-572q0 -39 -23.5 -58.5t-65.5 -19.5q-19 0 -36 3v-114q9 -2 23 -3t27 -1z" />
    <glyph glyph-name="k" unicode="k" horiz-adv-x="577" 
d="M61 0h131v166l70 76l153 -242h150l-205 325l201 219h-163l-206 -216v420h-131v-748z" />
    <glyph glyph-name="l" unicode="l" horiz-adv-x="252" 
d="M61 0h131v745h-131v-745z" />
    <glyph glyph-name="m" unicode="m" horiz-adv-x="924" 
d="M61 0h131v319q0 53 29 85t76 32q48 0 76.5 -31.5t28.5 -85.5v-319h131v319q0 53 29 85t76 32q48 0 76.5 -31.5t28.5 -85.5v-319h131v350q0 61 -26.5 107.5t-71.5 72.5t-103 26q-54 0 -97.5 -22t-71.5 -66q-24 40 -68.5 64t-99.5 24q-51 0 -91 -20t-61 -60v68h-123v-544z
" />
    <glyph glyph-name="n" unicode="n" 
d="M61 0h131v319q0 53 30.5 85t79.5 32t79.5 -31.5t30.5 -85.5v-319h131v350q0 61 -26 107.5t-72.5 72.5t-106.5 26q-51 0 -91.5 -20t-62.5 -59v67h-123v-544z" />
    <glyph glyph-name="o" unicode="o" horiz-adv-x="652" 
d="M327 -12q79 0 144 36.5t104 101t39 146.5t-38.5 146t-103.5 101t-145 37q-81 0 -146 -37t-103.5 -101t-38.5 -146t38.5 -146t104 -101t145.5 -37zM327 108q-44 0 -78.5 21t-54 58.5t-19.5 84.5t19.5 84t54 58.5t78.5 21.5t77.5 -21.5t53 -58.5t19.5 -84t-19.5 -84.5
t-53 -58.5t-77.5 -21z" />
    <glyph glyph-name="p" unicode="p" horiz-adv-x="672" 
d="M61 -200h131v252q30 -31 73 -47.5t93 -16.5q79 0 141 37.5t98 102t36 144.5t-36 144.5t-98 102t-140 37.5q-56 0 -101 -20t-74 -56v64h-123v-744zM343 108q-43 0 -77.5 21t-54 58t-19.5 85t19.5 85t54 58t77.5 21q45 0 79.5 -21.5t54.5 -58.5t20 -84t-20 -84.5
t-54.5 -58.5t-79.5 -21z" />
    <glyph glyph-name="q" unicode="q" horiz-adv-x="672" 
d="M480 -200h131v744h-124v-63q-29 36 -73.5 55.5t-100.5 19.5q-78 0 -140 -37.5t-98 -102t-36 -144.5t36 -144.5t98 -102t141 -37.5q50 0 93 16.5t73 47.5v-252zM328 108q-44 0 -79 21t-54.5 58.5t-19.5 84.5t19.5 84t54.5 58.5t79 21.5t78.5 -21t54 -58t19.5 -85
t-19.5 -85t-54 -58t-78.5 -21z" />
    <glyph glyph-name="r" unicode="r" horiz-adv-x="374" 
d="M61 0h131v303q0 62 34.5 96.5t89.5 34.5h47v116h-32q-50 0 -88 -18t-59 -65v77h-123v-544z" />
    <glyph glyph-name="s" unicode="s" horiz-adv-x="514" 
d="M268 -12q62 0 108 21t72 58.5t26 86.5q0 57 -36 98t-104 60l-87 26q-28 8 -46 21t-18 36q0 24 19 39t52 15q41 0 74.5 -22t46.5 -59l100 47q-25 66 -84 103.5t-136 37.5q-59 0 -104.5 -21t-71 -58.5t-25.5 -87.5q0 -56 35.5 -97t104.5 -61l89 -25q26 -7 44.5 -20.5
t18.5 -36.5q0 -27 -21.5 -42.5t-56.5 -15.5q-46 0 -83 26t-59 72l-98 -47q24 -70 88.5 -112t151.5 -42z" />
    <glyph glyph-name="t" unicode="t" horiz-adv-x="413" 
d="M309 -6q33 0 65 5v113q-19 -3 -35 -3q-48 0 -70 22t-22 63v233h125v117h-125v124h-131v-42q0 -40 -22 -61t-62 -21h-10v-117h94v-240q0 -91 50.5 -142t142.5 -51z" />
    <glyph glyph-name="u" unicode="u" 
d="M255 -12q51 0 90.5 19.5t62.5 57.5v-65h124v544h-131v-319q0 -54 -31 -85.5t-79 -31.5q-49 0 -79.5 31t-30.5 83v322h-131v-333q0 -100 54.5 -161.5t150.5 -61.5z" />
    <glyph glyph-name="v" unicode="v" horiz-adv-x="566" 
d="M225 0h116l214 544h-143l-129 -355l-129 355h-143z" />
    <glyph glyph-name="w" unicode="w" horiz-adv-x="883" 
d="M198 0h116l128 367l126 -367h117l187 544h-138l-114 -342l-120 342h-116l-121 -343l-114 343h-138z" />
    <glyph glyph-name="x" unicode="x" horiz-adv-x="558" 
d="M12 0h154l114 169l113 -169h153l-189 273l190 271h-153l-114 -169l-115 169h-154l191 -271z" />
    <glyph glyph-name="y" unicode="y" horiz-adv-x="586" 
d="M127 -221q77 0 128.5 43.5t82.5 122.5l237 599h-142l-140 -375l-141 375h-141l215 -544l-12 -29q-16 -34 -36.5 -55t-65.5 -21q-16 0 -34 2.5t-32 6.5v-110q17 -8 38 -11.5t43 -3.5z" />
    <glyph glyph-name="z" unicode="z" horiz-adv-x="481" 
d="M14 0h454v116h-274l272 321v107h-438v-117h263l-277 -321v-106z" />
    <glyph glyph-name="braceleft" unicode="{" horiz-adv-x="398" 
d="M301 -170h46v115h-46q-21 0 -33 13.5t-11 35.5v170q0 39 -15.5 70.5t-44.5 49.5q29 20 44.5 53t15.5 73v172q-1 23 11 35.5t33 12.5h46v115h-46q-84 0 -130.5 -42.5t-46.5 -117.5v-186q0 -28 -13 -43.5t-39 -15.5h-31v-115h31q26 0 39 -15.5t13 -43.5v-175
q0 -75 46.5 -118t130.5 -43z" />
    <glyph glyph-name="bar" unicode="|" horiz-adv-x="395" 
d="M131 -190h133v1035h-133v-1035z" />
    <glyph glyph-name="braceright" unicode="}" horiz-adv-x="398" 
d="M51 -170h46q84 0 130.5 43t46.5 118v175q0 28 13.5 43.5t38.5 15.5h31v115h-31q-25 0 -38.5 15.5t-13.5 43.5v186q0 75 -46.5 117.5t-130.5 42.5h-46v-115h46q21 0 33 -12.5t12 -35.5v-172q-1 -40 14.5 -73t44.5 -53q-28 -18 -44 -49.5t-15 -70.5v-170q0 -22 -12 -35.5
t-33 -13.5h-46v-115z" />
    <glyph glyph-name="asciitilde" unicode="~" horiz-adv-x="695" 
d="M444 190q134 0 146 171h-106q-6 -33 -20 -47t-36 -14q-21 0 -38 10t-35.5 22.5t-42.5 22.5t-58 10q-67 0 -105.5 -43.5t-43.5 -126.5h107q8 61 57 61q21 0 38.5 -10t36 -23t42.5 -23t58 -10z" />
    <glyph glyph-name="uni00A0" unicode="&#xa0;" horiz-adv-x="178" 
 />
    <glyph glyph-name="exclamdown" unicode="&#xa1;" horiz-adv-x="371" 
d="M119 404h133v140h-133v-140zM119 -201h133l-9 519h-115z" />
    <glyph glyph-name="cent" unicode="&#xa2;" horiz-adv-x="608" 
d="M278 0h85v92q75 10 130.5 53t76.5 104l-115 52q-26 -68 -92 -87v318q66 -19 92 -86l115 51q-23 63 -78.5 105.5t-128.5 51.5v91h-85v-91q-70 -10 -124 -48.5t-84.5 -98.5t-30.5 -133t30.5 -133.5t84.5 -99.5t124 -49v-92zM175 373q0 59 28.5 101t74.5 56v-314
q-46 15 -74.5 57t-28.5 100z" />
    <glyph glyph-name="sterling" unicode="&#xa3;" horiz-adv-x="663" 
d="M36 0h559v115h-323v222h184v84h-184v93q0 58 30 89.5t85 31.5q47 0 80.5 -25.5t40.5 -75.5l120 37q-7 57 -42 98.5t-87 64.5t-112 23q-78 0 -134.5 -30.5t-86.5 -85t-30 -127.5v-93h-100v-84h100v-222h-100v-115z" />
    <glyph glyph-name="currency" unicode="&#xa4;" horiz-adv-x="594" 
d="M115 11l79 78q48 -28 103 -28q57 0 104 28l79 -78l76 76l-79 78q28 47 28 104q0 56 -28 104l79 79l-76 76l-79 -79q-48 28 -104 28t-103 -28l-79 79l-76 -76l79 -79q-29 -47 -29 -104q0 -58 29 -104l-79 -78zM297 177q-38 0 -65 27t-27 65t27 65t65 27t65 -27t27 -65
t-27 -65t-65 -27z" />
    <glyph glyph-name="yen" unicode="&#xa5;" horiz-adv-x="660" 
d="M120 145h142v-145h137v145h141v84h-141v60h141v83h-116l225 373h-155l-164 -277l-164 277h-155l226 -373h-117v-83h142v-60h-142v-84z" />
    <glyph glyph-name="brokenbar" unicode="&#xa6;" horiz-adv-x="395" 
d="M131 428h133v417h-133v-417zM131 -190h133v418h-133v-418z" />
    <glyph glyph-name="section" unicode="&#xa7;" horiz-adv-x="534" 
d="M279 -97q64 0 112.5 22t75.5 61t27 90q0 79 -64 127q30 23 47 56t17 73q0 60 -38 103t-109 64l-93 27q-28 8 -48.5 22t-20.5 41t21 43.5t58 16.5q44 0 79 -23.5t51 -62.5l100 47q-26 71 -88.5 109t-140.5 38q-61 0 -108.5 -22t-74.5 -61t-27 -91q0 -79 64 -126
q-30 -23 -47 -56t-17 -74q0 -58 37 -101.5t110 -63.5l94 -27q29 -7 49 -22t20 -41q0 -30 -24 -47t-62 -17q-49 0 -89 27t-63 76l-99 -47q26 -74 93 -117.5t158 -43.5zM267 266q-37 11 -59.5 30.5t-22.5 53.5q0 43 30 64l67 -19q40 -11 61.5 -32t21.5 -53q0 -42 -29 -64z" />
    <glyph glyph-name="dieresis" unicode="&#xa8;" horiz-adv-x="585" 
d="M196 645q29 0 50.5 21t21.5 52q0 30 -21.5 51t-50.5 21q-31 0 -52 -21t-21 -51t21 -51.5t52 -21.5zM391 645q29 0 50.5 21t21.5 52q0 30 -21.5 51t-50.5 21q-31 0 -52 -21t-21 -51t21 -51.5t52 -21.5z" />
    <glyph glyph-name="copyright" unicode="&#xa9;" horiz-adv-x="938" 
d="M470 -12q80 0 149.5 30t122 83t82.5 123t30 150t-30 149t-83 122t-122.5 82.5t-148.5 29.5q-81 0 -151 -29.5t-123 -82.5t-82.5 -122t-29.5 -149t30 -150t83 -123t123 -83t150 -30zM470 81q-61 0 -114.5 22.5t-93.5 62.5t-62.5 93.5t-22.5 114.5q0 60 22.5 113t62.5 93
t93.5 62.5t114.5 22.5q60 0 113 -22.5t93 -62.5t62.5 -92.5t22.5 -113.5t-22.5 -114.5t-62.5 -93.5t-93 -62.5t-113 -22.5zM474 163q67 0 114.5 32t63.5 79l-90 35q-10 -24 -33 -40t-55 -16q-49 0 -78.5 33.5t-29.5 86.5t29.5 86.5t78.5 33.5q33 0 55.5 -17t32.5 -40l90 35
q-16 48 -63.5 79.5t-114.5 31.5q-59 0 -106.5 -27t-74.5 -74t-27 -108q0 -60 27.5 -107.5t74.5 -75t106 -27.5z" />
    <glyph glyph-name="ordfeminine" unicode="&#xaa;" horiz-adv-x="445" 
d="M173 355q70 0 113 43v-34h99v252q0 62 -46 100.5t-118 38.5q-59 0 -105.5 -28t-63.5 -76l85 -40q9 24 30 40t50 16t46 -15t17 -36v-10l-106 -17q-135 -22 -135 -123q0 -52 36.5 -81.5t97.5 -29.5zM148 470q0 19 11.5 28.5t33.5 13.5l87 16v-11q0 -35 -24.5 -59.5
t-62.5 -24.5q-20 0 -32.5 10t-12.5 27z" />
    <glyph glyph-name="guillemotleft" unicode="&#xab;" horiz-adv-x="674" 
d="M198 72h145l-152 197l152 198h-145l-153 -198zM483 72h145l-152 197l152 198h-145l-153 -198z" />
    <glyph glyph-name="logicalnot" unicode="&#xac;" horiz-adv-x="726" 
d="M483 40h112v267h-500v-113h388v-154z" />
    <glyph glyph-name="uni00AD" unicode="&#xad;" horiz-adv-x="600" 
d="M88 214h425v115h-425v-115z" />
    <glyph glyph-name="registered" unicode="&#xae;" horiz-adv-x="680" 
d="M341 271q71 0 129 35t92 93.5t34 128.5q0 72 -34.5 130t-92.5 92t-128 34q-71 0 -129.5 -34t-93 -92t-34.5 -130q0 -70 34.5 -128.5t93 -93.5t129.5 -35zM232 393h74v92h38l51 -92h74q-25 -24 -58 -37.5t-70 -13.5q-52 0 -94.5 25t-67.5 67t-25 94t25 94t67.5 67.5
t94.5 25.5q51 0 93 -25.5t67 -67.5t25 -94q0 -39 -14.5 -73t-39.5 -59l-59 103q18 11 29 29t11 45q0 47 -29 69t-73 22h-119v-271zM306 547v54h47q27 0 27 -27q0 -11 -7 -19t-20 -8h-47z" />
    <glyph glyph-name="macron" unicode="&#xaf;" horiz-adv-x="526" 
d="M123 659h281v97h-281v-97z" />
    <glyph glyph-name="degree" unicode="&#xb0;" horiz-adv-x="535" 
d="M267 423q47 0 85 22.5t60.5 60.5t22.5 84q0 47 -22.5 84.5t-60.5 60t-85 22.5q-46 0 -84 -22.5t-60.5 -60t-22.5 -84.5q0 -46 22.5 -84t60.5 -60.5t84 -22.5zM267 513q-31 0 -53.5 22t-22.5 55t22.5 55t53.5 22q32 0 54.5 -22t22.5 -55t-22.5 -55t-54.5 -22z" />
    <glyph glyph-name="plusminus" unicode="&#xb1;" horiz-adv-x="660" 
d="M274 183h113v146h193v113h-193v146h-113v-146h-194v-113h194v-146zM80 0h500v113h-500v-113z" />
    <glyph glyph-name="uni00B2" unicode="&#xb2;" horiz-adv-x="410" 
d="M23 224h355v92h-216l119 123q43 44 67 83t24 85q0 65 -48 106t-126 41q-41 0 -78.5 -16t-64 -46t-35.5 -72l95 -30q10 33 32.5 49.5t50.5 16.5t46.5 -16.5t18.5 -45.5q0 -17 -9.5 -35t-31 -43t-58.5 -63l-141 -145v-84z" />
    <glyph glyph-name="uni00B3" unicode="&#xb3;" horiz-adv-x="425" 
d="M202 215q55 0 98.5 24t68.5 64.5t25 92.5q0 60 -33 100.5t-89 49.5l101 115v84h-324v-90h202l-133 -146l25 -52q28 13 59 13q39 0 61 -21t22 -56q0 -37 -22.5 -58t-60.5 -21q-31 0 -54.5 16.5t-36.5 49.5l-95 -33q10 -39 37.5 -69t66.5 -46.5t82 -16.5z" />
    <glyph glyph-name="acute" unicode="&#xb4;" horiz-adv-x="455" 
d="M123 640h114l96 144h-147z" />
    <glyph glyph-name="uni00B5" unicode="&#xb5;" 
d="M50 -140h131v140q34 -12 74 -12q51 0 91.5 20t61.5 60v-68h124v544h-131v-319q0 -54 -31 -85.5t-79 -31.5q-49 0 -79.5 31t-30.5 83v322h-131v-684z" />
    <glyph glyph-name="paragraph" unicode="&#xb6;" horiz-adv-x="564" 
d="M297 -100h136v845h-136q-67 0 -117.5 -27.5t-78.5 -76.5t-28 -114q0 -64 28 -113t78.5 -76.5t117.5 -27.5v-410z" />
    <glyph glyph-name="periodcentered" unicode="&#xb7;" horiz-adv-x="378" 
d="M123 202h132v140h-132v-140z" />
    <glyph glyph-name="cedilla" unicode="&#xb8;" horiz-adv-x="476" 
d="M207 -221q74 0 110.5 31.5t36.5 74.5q0 39 -25.5 61.5t-63.5 22.5q-7 0 -15 -1l5 62h-87l-15 -114l23 -11q5 2 16.5 4t22.5 2q33 0 33 -29q0 -33 -51 -33q-12 0 -30 2t-32 7l-12 -68q20 -6 44 -8.5t40 -2.5z" />
    <glyph glyph-name="uni00B9" unicode="&#xb9;" horiz-adv-x="315" 
d="M117 224h109v521h-210v-91h101v-430z" />
    <glyph glyph-name="ordmasculine" unicode="&#xba;" horiz-adv-x="487" 
d="M244 355q56 0 102 26t74 71t28 103t-27.5 103t-74 71t-102.5 26t-103 -26t-74.5 -71t-27.5 -103t27.5 -103t74.5 -71t103 -26zM244 450q-43 0 -69.5 29.5t-26.5 75.5q0 45 26.5 75t69.5 30q42 0 68.5 -29.5t26.5 -75.5q0 -45 -26.5 -75t-68.5 -30z" />
    <glyph glyph-name="guillemotright" unicode="&#xbb;" horiz-adv-x="674" 
d="M331 72h144l154 197l-154 198h-144l152 -198zM46 72h144l154 197l-154 198h-144l152 -198z" />
    <glyph glyph-name="onequarter" unicode="&#xbc;" horiz-adv-x="881" 
d="M97 328h93v417h-174v-78h81v-339zM104 0h108l446 745h-108zM696 0h94v89h66v78h-66v250h-101l-174 -250v-78h181v-89zM696 167h-92l92 136v-136z" />
    <glyph glyph-name="onehalf" unicode="&#xbd;" horiz-adv-x="825" 
d="M97 328h93v417h-174v-78h81v-339zM104 0h108l446 745h-108zM508 0h285v79h-167l93 96q31 32 50.5 62.5t19.5 68.5q0 53 -39 85.5t-101 32.5q-49 0 -91 -28.5t-53 -77.5l81 -27q8 25 25.5 37t37.5 12t33.5 -12.5t13.5 -32.5q0 -19 -16 -41t-60 -66l-112 -116v-72z" />
    <glyph glyph-name="threequarters" unicode="&#xbe;" horiz-adv-x="953" 
d="M166 321q45 0 80 19t55 52.5t20 74.5q0 47 -25 79t-68 41l77 85v73h-262v-77h157l-105 -114l22 -44q22 11 49 11q31 0 47 -15.5t16 -40.5q0 -27 -17.5 -43t-45.5 -16q-49 0 -67 50l-83 -28q11 -49 54.5 -78t95.5 -29zM176 0h108l446 745h-108zM768 0h94v89h66v78h-66v250
h-101l-174 -250v-78h181v-89zM768 167h-92l92 136v-136z" />
    <glyph glyph-name="questiondown" unicode="&#xbf;" horiz-adv-x="583" 
d="M242 404h133v140h-133v-140zM293 -213q63 0 113 23.5t82 65.5t41 97l-122 30q-7 -43 -37.5 -68.5t-73.5 -25.5q-46 0 -71 24t-25 58q0 36 25 62.5t56 57.5q23 23 44 49t34.5 59.5t13.5 78.5v20h-125v-13q0 -43 -24.5 -76t-55.5 -63q-25 -24 -49 -50t-39.5 -57t-15.5 -71
q0 -51 26.5 -97t78 -75t124.5 -29z" />
    <glyph glyph-name="Agrave" unicode="&#xc0;" horiz-adv-x="712" 
d="M11 0h147l54 160h288l53 -160h148l-257 745h-176zM251 280l105 314l105 -314h-210zM299 842h115l-63 144h-147z" />
    <glyph glyph-name="Aacute" unicode="&#xc1;" horiz-adv-x="712" 
d="M11 0h147l54 160h288l53 -160h148l-257 745h-176zM251 280l105 314l105 -314h-210zM299 842h114l96 144h-147z" />
    <glyph glyph-name="Acircumflex" unicode="&#xc2;" horiz-adv-x="712" 
d="M11 0h147l54 160h288l53 -160h148l-257 745h-176zM251 280l105 314l105 -314h-210zM168 842h122l66 79l68 -79h119l-120 144h-136z" />
    <glyph glyph-name="Atilde" unicode="&#xc3;" horiz-adv-x="712" 
d="M11 0h147l54 160h288l53 -160h148l-257 745h-176zM251 280l105 314l105 -314h-210zM429 854q42 0 65.5 30.5t23.5 101.5h-84q0 -17 -7.5 -30t-22.5 -13q-18 0 -31.5 12t-31.5 24t-49 12q-40 0 -68 -30.5t-28 -102.5h83q2 19 9 31.5t23 12.5q18 0 32.5 -12t33.5 -24
t52 -12z" />
    <glyph glyph-name="Adieresis" unicode="&#xc4;" horiz-adv-x="712" 
d="M11 0h147l54 160h288l53 -160h148l-257 745h-176zM251 280l105 314l105 -314h-210zM260 847q29 0 50.5 21t21.5 52q0 30 -21.5 51t-50.5 21q-31 0 -52 -21t-21 -51t21 -51.5t52 -21.5zM455 847q29 0 50.5 21t21.5 52q0 30 -21.5 51t-50.5 21q-31 0 -52 -21t-21 -51
t21 -51.5t52 -21.5z" />
    <glyph glyph-name="Aring" unicode="&#xc5;" horiz-adv-x="712" 
d="M11 0h147l54 160h288l53 -160h148l-257 745h-176zM251 280l105 314l105 -314h-210zM357 785q36 0 64.5 16.5t45.5 45t17 63.5q0 36 -17 64.5t-45.5 45t-64.5 16.5q-55 0 -91.5 -36.5t-36.5 -89.5q0 -35 17 -63.5t46 -45t65 -16.5zM357 856q-24 0 -39.5 16t-15.5 38
q0 23 15.5 39t39.5 16q23 0 38 -16t15 -39q0 -22 -15 -38t-38 -16z" />
    <glyph glyph-name="AE" unicode="&#xc6;" horiz-adv-x="991" 
d="M11 0h147l54 160h256v-160h495l1 120h-360v194h340v120h-340v191h360v120h-696zM251 280l116 345h101v-345h-217z" />
    <glyph glyph-name="Ccedilla" unicode="&#xc7;" horiz-adv-x="774" 
d="M422 -12q80 0 143.5 27t107.5 71.5t63 97.5l-122 57q-22 -56 -71.5 -92.5t-120.5 -36.5q-70 0 -123 33t-83 91.5t-30 136.5t30 136.5t83 91t123 32.5q71 0 120.5 -36.5t71.5 -92.5l122 57q-19 53 -63 97.5t-107.5 71.5t-143.5 27t-148 -28.5t-118 -80t-78 -122
t-28 -153.5t28 -153.5t78 -122.5t118 -80.5t148 -28.5zM382 -251q74 0 110.5 31.5t36.5 74.5q0 39 -25.5 61.5t-63.5 22.5q-7 0 -15 -1l5 62h-87l-15 -114l23 -11q5 2 16.5 4t22.5 2q33 0 33 -29q0 -33 -51 -33q-12 0 -30 2t-32 7l-12 -68q20 -6 44 -8.5t40 -2.5z" />
    <glyph glyph-name="Egrave" unicode="&#xc8;" horiz-adv-x="595" 
d="M72 0h495v120h-359v194h339v120h-339v191h359v120h-495v-745zM262 842h115l-63 144h-147z" />
    <glyph glyph-name="Eacute" unicode="&#xc9;" horiz-adv-x="595" 
d="M72 0h495v120h-359v194h339v120h-339v191h359v120h-495v-745zM263 842h114l96 144h-147z" />
    <glyph glyph-name="Ecircumflex" unicode="&#xca;" horiz-adv-x="595" 
d="M72 0h495v120h-359v194h339v120h-339v191h359v120h-495v-745zM131 842h122l66 79l68 -79h119l-120 144h-136z" />
    <glyph glyph-name="Edieresis" unicode="&#xcb;" horiz-adv-x="595" 
d="M72 0h495v120h-359v194h339v120h-339v191h359v120h-495v-745zM223 847q29 0 50.5 21t21.5 52q0 30 -21.5 51t-50.5 21q-31 0 -52 -21t-21 -51t21 -51.5t52 -21.5zM418 847q29 0 50.5 21t21.5 52q0 30 -21.5 51t-50.5 21q-31 0 -52 -21t-21 -51t21 -51.5t52 -21.5z" />
    <glyph glyph-name="Igrave" unicode="&#xcc;" horiz-adv-x="279" 
d="M72 0h136v745h-136v-745zM83 842h115l-63 144h-147z" />
    <glyph glyph-name="Iacute" unicode="&#xcd;" horiz-adv-x="279" 
d="M72 0h136v745h-136v-745zM83 842h114l96 144h-147z" />
    <glyph glyph-name="Icircumflex" unicode="&#xce;" horiz-adv-x="279" 
d="M72 0h136v745h-136v-745zM-48 842h122l66 79l68 -79h119l-120 144h-136z" />
    <glyph glyph-name="Idieresis" unicode="&#xcf;" horiz-adv-x="279" 
d="M72 0h136v745h-136v-745zM44 847q29 0 50.5 21t21.5 52q0 30 -21.5 51t-50.5 21q-31 0 -52 -21t-21 -51t21 -51.5t52 -21.5zM239 847q29 0 50.5 21t21.5 52q0 30 -21.5 51t-50.5 21q-31 0 -52 -21t-21 -51t21 -51.5t52 -21.5z" />
    <glyph glyph-name="Eth" unicode="&#xd0;" horiz-adv-x="740" 
d="M72 0h243q118 0 205.5 48t135.5 132t48 193q0 110 -48 193.5t-135 131t-206 47.5h-243v-330h-94v-84h94v-331zM208 120v211h195v84h-195v210h110q76 0 131.5 -31t86.5 -87.5t31 -133.5t-30.5 -134t-86.5 -88t-132 -31h-110z" />
    <glyph glyph-name="Ntilde" unicode="&#xd1;" horiz-adv-x="741" 
d="M72 0h136v487l354 -487h107v745h-136v-478l-355 478h-106v-745zM443 854q42 0 65.5 30.5t23.5 101.5h-84q0 -17 -7.5 -30t-22.5 -13q-18 0 -31.5 12t-31.5 24t-49 12q-40 0 -68 -30.5t-28 -102.5h83q2 19 9 31.5t23 12.5q18 0 32.5 -12t33.5 -24t52 -12z" />
    <glyph glyph-name="Ograve" unicode="&#xd2;" horiz-adv-x="878" 
d="M439 -12q83 0 154 29t124 81t82.5 122.5t29.5 152.5q0 83 -29.5 153t-82.5 121.5t-124 80.5t-154 29t-154 -29t-123.5 -80.5t-82 -121.5t-29.5 -153q0 -82 29.5 -152.5t82.5 -122.5t124 -81t153 -29zM439 112q-72 0 -129.5 34t-90.5 93t-33 134t33 133.5t90.5 92.5
t129.5 34q73 0 130 -34t90 -92.5t33 -133.5t-33 -134t-90 -93t-130 -34zM382 842h115l-63 144h-147z" />
    <glyph glyph-name="Oacute" unicode="&#xd3;" horiz-adv-x="878" 
d="M439 -12q83 0 154 29t124 81t82.5 122.5t29.5 152.5q0 83 -29.5 153t-82.5 121.5t-124 80.5t-154 29t-154 -29t-123.5 -80.5t-82 -121.5t-29.5 -153q0 -82 29.5 -152.5t82.5 -122.5t124 -81t153 -29zM439 112q-72 0 -129.5 34t-90.5 93t-33 134t33 133.5t90.5 92.5
t129.5 34q73 0 130 -34t90 -92.5t33 -133.5t-33 -134t-90 -93t-130 -34zM382 842h114l96 144h-147z" />
    <glyph glyph-name="Ocircumflex" unicode="&#xd4;" horiz-adv-x="878" 
d="M439 -12q83 0 154 29t124 81t82.5 122.5t29.5 152.5q0 83 -29.5 153t-82.5 121.5t-124 80.5t-154 29t-154 -29t-123.5 -80.5t-82 -121.5t-29.5 -153q0 -82 29.5 -152.5t82.5 -122.5t124 -81t153 -29zM439 112q-72 0 -129.5 34t-90.5 93t-33 134t33 133.5t90.5 92.5
t129.5 34q73 0 130 -34t90 -92.5t33 -133.5t-33 -134t-90 -93t-130 -34zM251 842h122l66 79l68 -79h119l-120 144h-136z" />
    <glyph glyph-name="Otilde" unicode="&#xd5;" horiz-adv-x="878" 
d="M439 -12q83 0 154 29t124 81t82.5 122.5t29.5 152.5q0 83 -29.5 153t-82.5 121.5t-124 80.5t-154 29t-154 -29t-123.5 -80.5t-82 -121.5t-29.5 -153q0 -82 29.5 -152.5t82.5 -122.5t124 -81t153 -29zM439 112q-72 0 -129.5 34t-90.5 93t-33 134t33 133.5t90.5 92.5
t129.5 34q73 0 130 -34t90 -92.5t33 -133.5t-33 -134t-90 -93t-130 -34zM512 854q42 0 65.5 30.5t23.5 101.5h-84q0 -17 -7.5 -30t-22.5 -13q-18 0 -31.5 12t-31.5 24t-49 12q-40 0 -68 -30.5t-28 -102.5h83q2 19 9 31.5t23 12.5q18 0 32.5 -12t33.5 -24t52 -12z" />
    <glyph glyph-name="Odieresis" unicode="&#xd6;" horiz-adv-x="878" 
d="M439 -12q83 0 154 29t124 81t82.5 122.5t29.5 152.5q0 83 -29.5 153t-82.5 121.5t-124 80.5t-154 29t-154 -29t-123.5 -80.5t-82 -121.5t-29.5 -153q0 -82 29.5 -152.5t82.5 -122.5t124 -81t153 -29zM439 112q-72 0 -129.5 34t-90.5 93t-33 134t33 133.5t90.5 92.5
t129.5 34q73 0 130 -34t90 -92.5t33 -133.5t-33 -134t-90 -93t-130 -34zM343 847q29 0 50.5 21t21.5 52q0 30 -21.5 51t-50.5 21q-31 0 -52 -21t-21 -51t21 -51.5t52 -21.5zM538 847q29 0 50.5 21t21.5 52q0 30 -21.5 51t-50.5 21q-31 0 -52 -21t-21 -51t21 -51.5t52 -21.5z
" />
    <glyph glyph-name="multiply" unicode="&#xd7;" horiz-adv-x="618" 
d="M158 0l151 152l152 -152l79 80l-152 152l152 150l-80 79l-151 -150l-150 150l-80 -79l151 -150l-152 -152z" />
    <glyph glyph-name="Oslash" unicode="&#xd8;" horiz-adv-x="878" 
d="M60 0h144l33 41q44 -26 95 -39.5t107 -13.5q83 0 154 29t124 81t82.5 122.5t29.5 152.5q0 78 -27 145t-74 118l90 109h-144l-33 -40q-44 25 -95 38.5t-107 13.5q-83 0 -154 -29t-123.5 -80.5t-82 -121.5t-29.5 -153q0 -78 26.5 -145t74.5 -118zM186 373q0 75 33 133.5
t90.5 92.5t129.5 34q65 0 119 -28l-323 -392q-23 32 -36 73t-13 87zM439 112q-65 0 -119 28l323 392q23 -32 36 -72.5t13 -86.5q0 -75 -33 -134t-90 -93t-130 -34z" />
    <glyph glyph-name="Ugrave" unicode="&#xd9;" horiz-adv-x="718" 
d="M359 -12q86 0 152.5 36t104.5 99t38 143v479h-136v-472q0 -47 -20.5 -83.5t-56 -57t-82.5 -20.5q-46 0 -82 20.5t-56.5 57t-20.5 83.5v472h-136v-479q0 -80 38 -143t104.5 -99t152.5 -36zM302 842h115l-63 144h-147z" />
    <glyph glyph-name="Uacute" unicode="&#xda;" horiz-adv-x="718" 
d="M359 -12q86 0 152.5 36t104.5 99t38 143v479h-136v-472q0 -47 -20.5 -83.5t-56 -57t-82.5 -20.5q-46 0 -82 20.5t-56.5 57t-20.5 83.5v472h-136v-479q0 -80 38 -143t104.5 -99t152.5 -36zM302 842h114l96 144h-147z" />
    <glyph glyph-name="Ucircumflex" unicode="&#xdb;" horiz-adv-x="718" 
d="M359 -12q86 0 152.5 36t104.5 99t38 143v479h-136v-472q0 -47 -20.5 -83.5t-56 -57t-82.5 -20.5q-46 0 -82 20.5t-56.5 57t-20.5 83.5v472h-136v-479q0 -80 38 -143t104.5 -99t152.5 -36zM171 842h122l66 79l68 -79h119l-120 144h-136z" />
    <glyph glyph-name="Udieresis" unicode="&#xdc;" horiz-adv-x="718" 
d="M359 -12q86 0 152.5 36t104.5 99t38 143v479h-136v-472q0 -47 -20.5 -83.5t-56 -57t-82.5 -20.5q-46 0 -82 20.5t-56.5 57t-20.5 83.5v472h-136v-479q0 -80 38 -143t104.5 -99t152.5 -36zM263 847q29 0 50.5 21t21.5 52q0 30 -21.5 51t-50.5 21q-31 0 -52 -21t-21 -51
t21 -51.5t52 -21.5zM458 847q29 0 50.5 21t21.5 52q0 30 -21.5 51t-50.5 21q-31 0 -52 -21t-21 -51t21 -51.5t52 -21.5z" />
    <glyph glyph-name="Yacute" unicode="&#xdd;" horiz-adv-x="660" 
d="M262 0h137v331l250 414h-155l-164 -277l-164 277h-155l251 -415v-330zM273 842h114l96 144h-147z" />
    <glyph glyph-name="Thorn" unicode="&#xde;" horiz-adv-x="650" 
d="M65 0h136v138h143q75 0 133.5 27.5t92 80t33.5 126.5q0 76 -33 128.5t-91.5 80t-134.5 27.5h-143v137h-136v-745zM201 258v230h144q55 0 88 -31.5t33 -84.5q0 -52 -33 -83t-88 -31h-144z" />
    <glyph glyph-name="germandbls" unicode="&#xdf;" horiz-adv-x="641" 
d="M72 -157h131v660q0 66 35 102.5t91 36.5q48 0 77.5 -26.5t29.5 -68.5q0 -40 -28 -67t-72 -27h-51v-115h60q56 0 89 -30t33 -80q0 -51 -34 -82t-88 -31h-60v-115h68q77 0 133 28t86.5 79t30.5 121q0 61 -25.5 103.5t-82.5 69.5q38 24 57.5 62.5t19.5 82.5
q0 63 -30.5 110.5t-85 74t-127.5 26.5q-74 0 -132 -30.5t-91.5 -87.5t-33.5 -136v-660z" />
    <glyph glyph-name="agrave" unicode="&#xe0;" horiz-adv-x="580" 
d="M226 -12q106 0 170 70v-58h124v362q0 57 -29 101t-79.5 68.5t-117.5 24.5q-82 0 -146 -39t-88 -103l107 -52q15 37 47 59.5t75 22.5q45 0 72.5 -23.5t27.5 -58.5v-18l-162 -26q-96 -16 -142 -61t-46 -113q0 -72 51 -114t136 -42zM175 149q0 57 77 72l137 23v-22
q0 -56 -38.5 -95t-100.5 -39q-33 0 -54 16.5t-21 44.5zM233 640h115l-63 144h-147z" />
    <glyph glyph-name="aacute" unicode="&#xe1;" horiz-adv-x="580" 
d="M226 -12q106 0 170 70v-58h124v362q0 57 -29 101t-79.5 68.5t-117.5 24.5q-82 0 -146 -39t-88 -103l107 -52q15 37 47 59.5t75 22.5q45 0 72.5 -23.5t27.5 -58.5v-18l-162 -26q-96 -16 -142 -61t-46 -113q0 -72 51 -114t136 -42zM175 149q0 57 77 72l137 23v-22
q0 -56 -38.5 -95t-100.5 -39q-33 0 -54 16.5t-21 44.5zM234 640h114l96 144h-147z" />
    <glyph glyph-name="acircumflex" unicode="&#xe2;" horiz-adv-x="580" 
d="M226 -12q106 0 170 70v-58h124v362q0 57 -29 101t-79.5 68.5t-117.5 24.5q-82 0 -146 -39t-88 -103l107 -52q15 37 47 59.5t75 22.5q45 0 72.5 -23.5t27.5 -58.5v-18l-162 -26q-96 -16 -142 -61t-46 -113q0 -72 51 -114t136 -42zM175 149q0 57 77 72l137 23v-22
q0 -56 -38.5 -95t-100.5 -39q-33 0 -54 16.5t-21 44.5zM102 640h122l66 79l68 -79h119l-120 144h-136z" />
    <glyph glyph-name="atilde" unicode="&#xe3;" horiz-adv-x="580" 
d="M226 -12q106 0 170 70v-58h124v362q0 57 -29 101t-79.5 68.5t-117.5 24.5q-82 0 -146 -39t-88 -103l107 -52q15 37 47 59.5t75 22.5q45 0 72.5 -23.5t27.5 -58.5v-18l-162 -26q-96 -16 -142 -61t-46 -113q0 -72 51 -114t136 -42zM175 149q0 57 77 72l137 23v-22
q0 -56 -38.5 -95t-100.5 -39q-33 0 -54 16.5t-21 44.5zM363 652q42 0 65.5 30.5t23.5 101.5h-84q0 -17 -7.5 -30t-22.5 -13q-18 0 -31.5 12t-31.5 24t-49 12q-40 0 -68 -30.5t-28 -102.5h83q2 19 9 31.5t23 12.5q18 0 32.5 -12t33.5 -24t52 -12z" />
    <glyph glyph-name="adieresis" unicode="&#xe4;" horiz-adv-x="580" 
d="M226 -12q106 0 170 70v-58h124v362q0 57 -29 101t-79.5 68.5t-117.5 24.5q-82 0 -146 -39t-88 -103l107 -52q15 37 47 59.5t75 22.5q45 0 72.5 -23.5t27.5 -58.5v-18l-162 -26q-96 -16 -142 -61t-46 -113q0 -72 51 -114t136 -42zM175 149q0 57 77 72l137 23v-22
q0 -56 -38.5 -95t-100.5 -39q-33 0 -54 16.5t-21 44.5zM194 645q29 0 50.5 21t21.5 52q0 30 -21.5 51t-50.5 21q-31 0 -52 -21t-21 -51t21 -51.5t52 -21.5zM389 645q29 0 50.5 21t21.5 52q0 30 -21.5 51t-50.5 21q-31 0 -52 -21t-21 -51t21 -51.5t52 -21.5z" />
    <glyph glyph-name="aring" unicode="&#xe5;" horiz-adv-x="580" 
d="M226 -12q106 0 170 70v-58h124v362q0 57 -29 101t-79.5 68.5t-117.5 24.5q-82 0 -146 -39t-88 -103l107 -52q15 37 47 59.5t75 22.5q45 0 72.5 -23.5t27.5 -58.5v-18l-162 -26q-96 -16 -142 -61t-46 -113q0 -72 51 -114t136 -42zM175 149q0 57 77 72l137 23v-22
q0 -56 -38.5 -95t-100.5 -39q-33 0 -54 16.5t-21 44.5zM291 583q36 0 64.5 16.5t45.5 45t17 63.5q0 36 -17 64.5t-45.5 45t-64.5 16.5q-55 0 -91.5 -36.5t-36.5 -89.5q0 -35 17 -63.5t46 -45t65 -16.5zM291 654q-24 0 -39.5 16t-15.5 38q0 23 15.5 39t39.5 16q23 0 38 -16
t15 -39q0 -22 -15 -38t-38 -16z" />
    <glyph glyph-name="ae" unicode="&#xe6;" horiz-adv-x="967" 
d="M226 -12q106 0 170 68v-56h111v56q35 -34 81 -51t100 -17q49 0 92.5 17t77 47t49.5 69l-106 52q-19 -31 -50.5 -50.5t-75.5 -19.5q-60 0 -100 35.5t-45 96.5h392q6 23 6 55q0 73 -31 133t-90 96.5t-143 36.5q-56 0 -104 -20t-83 -55q-30 35 -77 55t-106 20
q-82 0 -146 -39t-88 -103l107 -52q15 37 47 59.5t75 22.5q45 0 72.5 -23.5t27.5 -58.5v-18l-162 -26q-96 -16 -142 -61t-46 -113q0 -72 51 -114t136 -42zM533 335q10 54 46 83.5t85 29.5q52 0 86.5 -31.5t38.5 -81.5h-256zM250 88q-33 0 -54 16.5t-21 44.5q0 57 77 72
l137 23v-22q0 -56 -38.5 -95t-100.5 -39z" />
    <glyph glyph-name="ccedilla" unicode="&#xe7;" horiz-adv-x="608" 
d="M323 -12q59 0 109 20.5t86 57t52 82.5l-115 52q-16 -43 -50.5 -67.5t-81.5 -24.5q-43 0 -76.5 21t-52.5 58.5t-19 84.5q0 48 19 85t52.5 58t76.5 21q47 0 81.5 -25t50.5 -66l115 50q-17 48 -53 84.5t-86 56.5t-108 20q-81 0 -145.5 -37t-101.5 -101t-37 -145t37 -145.5
t101.5 -102t145.5 -37.5zM318 -251q74 0 110.5 31.5t36.5 74.5q0 39 -25.5 61.5t-63.5 22.5q-7 0 -15 -1l5 62h-87l-15 -114l23 -11q5 2 16.5 4t22.5 2q33 0 33 -29q0 -33 -51 -33q-12 0 -30 2t-32 7l-12 -68q20 -6 44 -8.5t40 -2.5z" />
    <glyph glyph-name="egrave" unicode="&#xe8;" horiz-adv-x="612" 
d="M319 -12q83 0 145.5 37.5t87.5 95.5l-106 52q-18 -31 -49.5 -50.5t-76.5 -19.5q-59 0 -99 36t-46 96h392q4 11 5.5 25.5t1.5 29.5q0 73 -31 133t-90 96.5t-144 36.5q-76 0 -137.5 -37t-97 -100.5t-35.5 -145.5q0 -79 35 -144t98 -103t147 -38zM309 448q52 0 86.5 -31.5
t38.5 -81.5h-256q11 54 46.5 83.5t84.5 29.5zM249 640h115l-63 144h-147z" />
    <glyph glyph-name="eacute" unicode="&#xe9;" horiz-adv-x="612" 
d="M319 -12q83 0 145.5 37.5t87.5 95.5l-106 52q-18 -31 -49.5 -50.5t-76.5 -19.5q-59 0 -99 36t-46 96h392q4 11 5.5 25.5t1.5 29.5q0 73 -31 133t-90 96.5t-144 36.5q-76 0 -137.5 -37t-97 -100.5t-35.5 -145.5q0 -79 35 -144t98 -103t147 -38zM309 448q52 0 86.5 -31.5
t38.5 -81.5h-256q11 54 46.5 83.5t84.5 29.5zM250 640h114l96 144h-147z" />
    <glyph glyph-name="ecircumflex" unicode="&#xea;" horiz-adv-x="612" 
d="M319 -12q83 0 145.5 37.5t87.5 95.5l-106 52q-18 -31 -49.5 -50.5t-76.5 -19.5q-59 0 -99 36t-46 96h392q4 11 5.5 25.5t1.5 29.5q0 73 -31 133t-90 96.5t-144 36.5q-76 0 -137.5 -37t-97 -100.5t-35.5 -145.5q0 -79 35 -144t98 -103t147 -38zM309 448q52 0 86.5 -31.5
t38.5 -81.5h-256q11 54 46.5 83.5t84.5 29.5zM118 640h122l66 79l68 -79h119l-120 144h-136z" />
    <glyph glyph-name="edieresis" unicode="&#xeb;" horiz-adv-x="612" 
d="M319 -12q83 0 145.5 37.5t87.5 95.5l-106 52q-18 -31 -49.5 -50.5t-76.5 -19.5q-59 0 -99 36t-46 96h392q4 11 5.5 25.5t1.5 29.5q0 73 -31 133t-90 96.5t-144 36.5q-76 0 -137.5 -37t-97 -100.5t-35.5 -145.5q0 -79 35 -144t98 -103t147 -38zM309 448q52 0 86.5 -31.5
t38.5 -81.5h-256q11 54 46.5 83.5t84.5 29.5zM210 645q29 0 50.5 21t21.5 52q0 30 -21.5 51t-50.5 21q-31 0 -52 -21t-21 -51t21 -51.5t52 -21.5zM405 645q29 0 50.5 21t21.5 52q0 30 -21.5 51t-50.5 21q-31 0 -52 -21t-21 -51t21 -51.5t52 -21.5z" />
    <glyph glyph-name="igrave" unicode="&#xec;" horiz-adv-x="228" 
d="M49 0h131v544h-131v-544zM57 640h115l-63 144h-147z" />
    <glyph glyph-name="iacute" unicode="&#xed;" horiz-adv-x="228" 
d="M49 0h131v544h-131v-544zM57 640h114l96 144h-147z" />
    <glyph glyph-name="icircumflex" unicode="&#xee;" horiz-adv-x="228" 
d="M49 0h131v544h-131v-544zM-74 640h122l66 79l68 -79h119l-120 144h-136z" />
    <glyph glyph-name="idieresis" unicode="&#xef;" horiz-adv-x="228" 
d="M49 0h131v544h-131v-544zM18 645q29 0 50.5 21t21.5 52q0 30 -21.5 51t-50.5 21q-31 0 -52 -21t-21 -51t21 -51.5t52 -21.5zM213 645q29 0 50.5 21t21.5 52q0 30 -21.5 51t-50.5 21q-31 0 -52 -21t-21 -51t21 -51.5t52 -21.5z" />
    <glyph glyph-name="eth" unicode="&#xf0;" horiz-adv-x="652" 
d="M328 -12q82 0 146.5 38t102 114t37.5 190q0 97 -30.5 185t-86.5 154l65 25v60l-109 -42q-47 39 -105.5 61.5t-127.5 22.5q-68 0 -142 -25l15 -107q54 17 104 17q62 0 117 -23l-92 -35v-60l154 59q29 -22 50.5 -53t32.5 -69q-59 46 -140 46q-79 0 -142.5 -36.5t-100.5 -99
t-37 -141.5q0 -82 39 -145.5t105 -99.5t145 -36zM327 108q-43 0 -77.5 20.5t-54.5 57t-20 82.5q0 68 42 113t110 45q46 0 79.5 -21t52 -57t18.5 -80q0 -45 -19.5 -81.5t-53 -57.5t-77.5 -21z" />
    <glyph glyph-name="ntilde" unicode="&#xf1;" 
d="M61 0h131v319q0 53 30.5 85t79.5 32t79.5 -31.5t30.5 -85.5v-319h131v350q0 61 -26 107.5t-72.5 72.5t-106.5 26q-51 0 -91.5 -20t-62.5 -59v67h-123v-544zM369 652q42 0 65.5 30.5t23.5 101.5h-84q0 -17 -7.5 -30t-22.5 -13q-18 0 -31.5 12t-31.5 24t-49 12
q-40 0 -68 -30.5t-28 -102.5h83q2 19 9 31.5t23 12.5q18 0 32.5 -12t33.5 -24t52 -12z" />
    <glyph glyph-name="ograve" unicode="&#xf2;" horiz-adv-x="652" 
d="M327 -12q79 0 144 36.5t104 101t39 146.5t-38.5 146t-103.5 101t-145 37q-81 0 -146 -37t-103.5 -101t-38.5 -146t38.5 -146t104 -101t145.5 -37zM327 108q-44 0 -78.5 21t-54 58.5t-19.5 84.5t19.5 84t54 58.5t78.5 21.5t77.5 -21.5t53 -58.5t19.5 -84t-19.5 -84.5
t-53 -58.5t-77.5 -21zM269 640h115l-63 144h-147z" />
    <glyph glyph-name="oacute" unicode="&#xf3;" horiz-adv-x="652" 
d="M327 -12q79 0 144 36.5t104 101t39 146.5t-38.5 146t-103.5 101t-145 37q-81 0 -146 -37t-103.5 -101t-38.5 -146t38.5 -146t104 -101t145.5 -37zM327 108q-44 0 -78.5 21t-54 58.5t-19.5 84.5t19.5 84t54 58.5t78.5 21.5t77.5 -21.5t53 -58.5t19.5 -84t-19.5 -84.5
t-53 -58.5t-77.5 -21zM270 640h114l96 144h-147z" />
    <glyph glyph-name="ocircumflex" unicode="&#xf4;" horiz-adv-x="652" 
d="M327 -12q79 0 144 36.5t104 101t39 146.5t-38.5 146t-103.5 101t-145 37q-81 0 -146 -37t-103.5 -101t-38.5 -146t38.5 -146t104 -101t145.5 -37zM327 108q-44 0 -78.5 21t-54 58.5t-19.5 84.5t19.5 84t54 58.5t78.5 21.5t77.5 -21.5t53 -58.5t19.5 -84t-19.5 -84.5
t-53 -58.5t-77.5 -21zM138 640h122l66 79l68 -79h119l-120 144h-136z" />
    <glyph glyph-name="otilde" unicode="&#xf5;" horiz-adv-x="652" 
d="M327 -12q79 0 144 36.5t104 101t39 146.5t-38.5 146t-103.5 101t-145 37q-81 0 -146 -37t-103.5 -101t-38.5 -146t38.5 -146t104 -101t145.5 -37zM327 108q-44 0 -78.5 21t-54 58.5t-19.5 84.5t19.5 84t54 58.5t78.5 21.5t77.5 -21.5t53 -58.5t19.5 -84t-19.5 -84.5
t-53 -58.5t-77.5 -21zM399 652q42 0 65.5 30.5t23.5 101.5h-84q0 -17 -7.5 -30t-22.5 -13q-18 0 -31.5 12t-31.5 24t-49 12q-40 0 -68 -30.5t-28 -102.5h83q2 19 9 31.5t23 12.5q18 0 32.5 -12t33.5 -24t52 -12z" />
    <glyph glyph-name="odieresis" unicode="&#xf6;" horiz-adv-x="652" 
d="M327 -12q79 0 144 36.5t104 101t39 146.5t-38.5 146t-103.5 101t-145 37q-81 0 -146 -37t-103.5 -101t-38.5 -146t38.5 -146t104 -101t145.5 -37zM327 108q-44 0 -78.5 21t-54 58.5t-19.5 84.5t19.5 84t54 58.5t78.5 21.5t77.5 -21.5t53 -58.5t19.5 -84t-19.5 -84.5
t-53 -58.5t-77.5 -21zM230 645q29 0 50.5 21t21.5 52q0 30 -21.5 51t-50.5 21q-31 0 -52 -21t-21 -51t21 -51.5t52 -21.5zM425 645q29 0 50.5 21t21.5 52q0 30 -21.5 51t-50.5 21q-31 0 -52 -21t-21 -51t21 -51.5t52 -21.5z" />
    <glyph glyph-name="divide" unicode="&#xf7;" horiz-adv-x="662" 
d="M264 386h133v114h-133v-114zM81 194h500v113h-500v-113zM264 0h133v114h-133v-114z" />
    <glyph glyph-name="oslash" unicode="&#xf8;" horiz-adv-x="652" 
d="M36 0h133l18 22q64 -34 140 -34q79 0 144 36.5t104 101t39 146.5q0 55 -18 102.5t-50 84.5l70 85h-133l-18 -22q-63 34 -138 34q-80 0 -145.5 -37t-104 -101t-38.5 -146q0 -55 18 -102t50 -84zM175 272q0 47 19.5 84t54 58.5t78.5 21.5q31 0 58 -11l-192 -234
q-18 36 -18 81zM327 108q-32 0 -60 12l192 233q18 -37 18 -81q0 -47 -19.5 -84.5t-53 -58.5t-77.5 -21z" />
    <glyph glyph-name="ugrave" unicode="&#xf9;" 
d="M255 -12q51 0 90.5 19.5t62.5 57.5v-65h124v544h-131v-319q0 -54 -31 -85.5t-79 -31.5q-49 0 -79.5 31t-30.5 83v322h-131v-333q0 -100 54.5 -161.5t150.5 -61.5zM239 640h115l-63 144h-147z" />
    <glyph glyph-name="uacute" unicode="&#xfa;" 
d="M255 -12q51 0 90.5 19.5t62.5 57.5v-65h124v544h-131v-319q0 -54 -31 -85.5t-79 -31.5q-49 0 -79.5 31t-30.5 83v322h-131v-333q0 -100 54.5 -161.5t150.5 -61.5zM240 640h114l96 144h-147z" />
    <glyph glyph-name="ucircumflex" unicode="&#xfb;" 
d="M255 -12q51 0 90.5 19.5t62.5 57.5v-65h124v544h-131v-319q0 -54 -31 -85.5t-79 -31.5q-49 0 -79.5 31t-30.5 83v322h-131v-333q0 -100 54.5 -161.5t150.5 -61.5zM108 640h122l66 79l68 -79h119l-120 144h-136z" />
    <glyph glyph-name="udieresis" unicode="&#xfc;" 
d="M255 -12q51 0 90.5 19.5t62.5 57.5v-65h124v544h-131v-319q0 -54 -31 -85.5t-79 -31.5q-49 0 -79.5 31t-30.5 83v322h-131v-333q0 -100 54.5 -161.5t150.5 -61.5zM200 645q29 0 50.5 21t21.5 52q0 30 -21.5 51t-50.5 21q-31 0 -52 -21t-21 -51t21 -51.5t52 -21.5z
M395 645q29 0 50.5 21t21.5 52q0 30 -21.5 51t-50.5 21q-31 0 -52 -21t-21 -51t21 -51.5t52 -21.5z" />
    <glyph glyph-name="yacute" unicode="&#xfd;" horiz-adv-x="586" 
d="M127 -221q77 0 128.5 43.5t82.5 122.5l237 599h-142l-140 -375l-141 375h-141l215 -544l-12 -29q-16 -34 -36.5 -55t-65.5 -21q-16 0 -34 2.5t-32 6.5v-110q17 -8 38 -11.5t43 -3.5zM236 640h114l96 144h-147z" />
    <glyph glyph-name="thorn" unicode="&#xfe;" horiz-adv-x="672" 
d="M61 -200h131v252q30 -31 73 -47.5t93 -16.5q79 0 141 37.5t98 102t36 144.5t-36 144.5t-98 102t-140 37.5q-56 0 -101 -20t-74 -56v265h-123v-945zM343 108q-43 0 -77.5 21t-54 58t-19.5 85t19.5 85t54 58t77.5 21q45 0 79.5 -21.5t54.5 -58.5t20 -84t-20 -84.5
t-54.5 -58.5t-79.5 -21z" />
    <glyph glyph-name="ydieresis" unicode="&#xff;" horiz-adv-x="586" 
d="M127 -221q77 0 128.5 43.5t82.5 122.5l237 599h-142l-140 -375l-141 375h-141l215 -544l-12 -29q-16 -34 -36.5 -55t-65.5 -21q-16 0 -34 2.5t-32 6.5v-110q17 -8 38 -11.5t43 -3.5zM196 645q29 0 50.5 21t21.5 52q0 30 -21.5 51t-50.5 21q-31 0 -52 -21t-21 -51
t21 -51.5t52 -21.5zM391 645q29 0 50.5 21t21.5 52q0 30 -21.5 51t-50.5 21q-31 0 -52 -21t-21 -51t21 -51.5t52 -21.5z" />
    <glyph glyph-name="Amacron" unicode="&#x100;" horiz-adv-x="712" 
d="M11 0h147l54 160h288l53 -160h148l-257 745h-176zM251 280l105 314l105 -314h-210zM216 861h281v97h-281v-97z" />
    <glyph glyph-name="amacron" unicode="&#x101;" horiz-adv-x="580" 
d="M226 -12q106 0 170 70v-58h124v362q0 57 -29 101t-79.5 68.5t-117.5 24.5q-82 0 -146 -39t-88 -103l107 -52q15 37 47 59.5t75 22.5q45 0 72.5 -23.5t27.5 -58.5v-18l-162 -26q-96 -16 -142 -61t-46 -113q0 -72 51 -114t136 -42zM175 149q0 57 77 72l137 23v-22
q0 -56 -38.5 -95t-100.5 -39q-33 0 -54 16.5t-21 44.5zM151 659h281v97h-281v-97z" />
    <glyph glyph-name="Abreve" unicode="&#x102;" horiz-adv-x="712" 
d="M11 0h147l54 160h288l53 -160h148l-257 745h-176zM251 280l105 314l105 -314h-210zM356 842q45 0 81.5 20t58 53.5t21.5 72.5h-103q0 -23 -16.5 -38.5t-41.5 -15.5t-41.5 15.5t-16.5 38.5h-103q0 -39 22 -72.5t58.5 -53.5t80.5 -20z" />
    <glyph glyph-name="abreve" unicode="&#x103;" horiz-adv-x="580" 
d="M226 -12q106 0 170 70v-58h124v362q0 57 -29 101t-79.5 68.5t-117.5 24.5q-82 0 -146 -39t-88 -103l107 -52q15 37 47 59.5t75 22.5q45 0 72.5 -23.5t27.5 -58.5v-18l-162 -26q-96 -16 -142 -61t-46 -113q0 -72 51 -114t136 -42zM175 149q0 57 77 72l137 23v-22
q0 -56 -38.5 -95t-100.5 -39q-33 0 -54 16.5t-21 44.5zM291 640q45 0 81.5 20t58 53.5t21.5 72.5h-103q0 -23 -16.5 -38.5t-41.5 -15.5t-41.5 15.5t-16.5 38.5h-103q0 -39 22 -72.5t58.5 -53.5t80.5 -20z" />
    <glyph glyph-name="Aogonek" unicode="&#x104;" horiz-adv-x="712" 
d="M11 0h147l54 160h288l53 -160h148l-257 745h-176zM251 280l105 314l105 -314h-210zM599 -202q33 0 68 11t72 40l-40 68q-20 -12 -42 -20t-45 -8q-29 0 -44.5 13t-15.5 33q0 21 20.5 41.5t75.5 35.5v33h-40q-43 -5 -78.5 -23.5t-56 -47t-20.5 -65.5q0 -52 42 -81.5
t104 -29.5z" />
    <glyph glyph-name="aogonek" unicode="&#x105;" horiz-adv-x="580" 
d="M226 -12q106 0 170 70v-58h124v362q0 57 -29 101t-79.5 68.5t-117.5 24.5q-82 0 -146 -39t-88 -103l107 -52q15 37 47 59.5t75 22.5q45 0 72.5 -23.5t27.5 -58.5v-18l-162 -26q-96 -16 -142 -61t-46 -113q0 -72 51 -114t136 -42zM175 149q0 57 77 72l137 23v-22
q0 -56 -38.5 -95t-100.5 -39q-33 0 -54 16.5t-21 44.5zM464 -206q33 0 68 11t72 40l-40 68q-20 -12 -42 -20t-45 -8q-29 0 -44.5 13t-15.5 33q0 21 20.5 41.5t75.5 35.5v33h-40q-43 -5 -78.5 -23.5t-56 -47t-20.5 -65.5q0 -52 42 -81.5t104 -29.5z" />
    <glyph glyph-name="Cacute" unicode="&#x106;" horiz-adv-x="774" 
d="M422 -12q80 0 143.5 27t107.5 71.5t63 97.5l-122 57q-22 -56 -71.5 -92.5t-120.5 -36.5q-70 0 -123 33t-83 91.5t-30 136.5t30 136.5t83 91t123 32.5q71 0 120.5 -36.5t71.5 -92.5l122 57q-19 53 -63 97.5t-107.5 71.5t-143.5 27t-148 -28.5t-118 -80t-78 -122
t-28 -153.5t28 -153.5t78 -122.5t118 -80.5t148 -28.5zM330 842h114l96 144h-147z" />
    <glyph glyph-name="cacute" unicode="&#x107;" horiz-adv-x="608" 
d="M323 -12q59 0 109 20.5t86 57t52 82.5l-115 52q-16 -43 -50.5 -67.5t-81.5 -24.5q-43 0 -76.5 21t-52.5 58.5t-19 84.5q0 48 19 85t52.5 58t76.5 21q47 0 81.5 -25t50.5 -66l115 50q-17 48 -53 84.5t-86 56.5t-108 20q-81 0 -145.5 -37t-101.5 -101t-37 -145t37 -145.5
t101.5 -102t145.5 -37.5zM266 640h114l96 144h-147z" />
    <glyph glyph-name="Ccircumflex" unicode="&#x108;" horiz-adv-x="774" 
d="M422 -12q80 0 143.5 27t107.5 71.5t63 97.5l-122 57q-22 -56 -71.5 -92.5t-120.5 -36.5q-70 0 -123 33t-83 91.5t-30 136.5t30 136.5t83 91t123 32.5q71 0 120.5 -36.5t71.5 -92.5l122 57q-19 53 -63 97.5t-107.5 71.5t-143.5 27t-148 -28.5t-118 -80t-78 -122
t-28 -153.5t28 -153.5t78 -122.5t118 -80.5t148 -28.5zM199 842h122l66 79l68 -79h119l-120 144h-136z" />
    <glyph glyph-name="ccircumflex" unicode="&#x109;" horiz-adv-x="608" 
d="M323 -12q59 0 109 20.5t86 57t52 82.5l-115 52q-16 -43 -50.5 -67.5t-81.5 -24.5q-43 0 -76.5 21t-52.5 58.5t-19 84.5q0 48 19 85t52.5 58t76.5 21q47 0 81.5 -25t50.5 -66l115 50q-17 48 -53 84.5t-86 56.5t-108 20q-81 0 -145.5 -37t-101.5 -101t-37 -145t37 -145.5
t101.5 -102t145.5 -37.5zM134 640h122l66 79l68 -79h119l-120 144h-136z" />
    <glyph glyph-name="Cdotaccent" unicode="&#x10a;" horiz-adv-x="774" 
d="M422 -12q80 0 143.5 27t107.5 71.5t63 97.5l-122 57q-22 -56 -71.5 -92.5t-120.5 -36.5q-70 0 -123 33t-83 91.5t-30 136.5t30 136.5t83 91t123 32.5q71 0 120.5 -36.5t71.5 -92.5l122 57q-19 53 -63 97.5t-107.5 71.5t-143.5 27t-148 -28.5t-118 -80t-78 -122
t-28 -153.5t28 -153.5t78 -122.5t118 -80.5t148 -28.5zM388 847q29 0 50.5 21t21.5 52q0 30 -21.5 51t-50.5 21q-31 0 -52 -21t-21 -51t21 -51.5t52 -21.5z" />
    <glyph glyph-name="cdotaccent" unicode="&#x10b;" horiz-adv-x="608" 
d="M323 -12q59 0 109 20.5t86 57t52 82.5l-115 52q-16 -43 -50.5 -67.5t-81.5 -24.5q-43 0 -76.5 21t-52.5 58.5t-19 84.5q0 48 19 85t52.5 58t76.5 21q47 0 81.5 -25t50.5 -66l115 50q-17 48 -53 84.5t-86 56.5t-108 20q-81 0 -145.5 -37t-101.5 -101t-37 -145t37 -145.5
t101.5 -102t145.5 -37.5zM323 645q29 0 50.5 21t21.5 52q0 30 -21.5 51t-50.5 21q-31 0 -52 -21t-21 -51t21 -51.5t52 -21.5z" />
    <glyph glyph-name="Ccaron" unicode="&#x10c;" horiz-adv-x="774" 
d="M422 -12q80 0 143.5 27t107.5 71.5t63 97.5l-122 57q-22 -56 -71.5 -92.5t-120.5 -36.5q-70 0 -123 33t-83 91.5t-30 136.5t30 136.5t83 91t123 32.5q71 0 120.5 -36.5t71.5 -92.5l122 57q-19 53 -63 97.5t-107.5 71.5t-143.5 27t-148 -28.5t-118 -80t-78 -122
t-28 -153.5t28 -153.5t78 -122.5t118 -80.5t148 -28.5zM319 842h136l120 144h-119l-68 -79l-66 79h-122z" />
    <glyph glyph-name="ccaron" unicode="&#x10d;" horiz-adv-x="608" 
d="M323 -12q59 0 109 20.5t86 57t52 82.5l-115 52q-16 -43 -50.5 -67.5t-81.5 -24.5q-43 0 -76.5 21t-52.5 58.5t-19 84.5q0 48 19 85t52.5 58t76.5 21q47 0 81.5 -25t50.5 -66l115 50q-17 48 -53 84.5t-86 56.5t-108 20q-81 0 -145.5 -37t-101.5 -101t-37 -145t37 -145.5
t101.5 -102t145.5 -37.5zM254 640h136l120 144h-119l-68 -79l-66 79h-122z" />
    <glyph glyph-name="Dcaron" unicode="&#x10e;" horiz-adv-x="740" 
d="M72 0h243q118 0 205.5 48t135.5 132t48 193q0 110 -48 193.5t-135 131t-206 47.5h-243v-745zM208 120v505h110q76 0 131.5 -31t86.5 -87.5t31 -133.5t-30.5 -134t-86.5 -88t-132 -31h-110zM308 842h136l120 144h-119l-68 -79l-66 79h-122z" />
    <glyph glyph-name="dcaron" unicode="&#x10f;" horiz-adv-x="845" 
d="M314 -12q53 0 98 18.5t75 53.5v-60h124v745h-131v-256q-61 67 -167 67q-77 0 -139.5 -37.5t-98.5 -102t-36 -144.5t36 -144.5t98 -102t141 -37.5zM328 108q-44 0 -79 21t-54.5 58.5t-19.5 84.5t19.5 84t54.5 58.5t79 21.5t78.5 -21t54 -58t19.5 -85t-19.5 -85t-54 -58
t-78.5 -21zM711 646h103l19 184h-141z" />
    <glyph glyph-name="Dcroat" unicode="&#x110;" horiz-adv-x="740" 
d="M72 0h243q118 0 205.5 48t135.5 132t48 193q0 110 -48 193.5t-135 131t-206 47.5h-243v-330h-94v-84h94v-331zM208 120v211h195v84h-195v210h110q76 0 131.5 -31t86.5 -87.5t31 -133.5t-30.5 -134t-86.5 -88t-132 -31h-110z" />
    <glyph glyph-name="dcroat" unicode="&#x111;" horiz-adv-x="672" 
d="M314 -12q53 0 98 18.5t75 53.5v-60h124v598h98v84h-98v63h-131v-63h-96v-84h96v-109q-61 67 -167 67q-77 0 -139.5 -37.5t-98.5 -102t-36 -144.5t36 -144.5t98 -102t141 -37.5zM328 108q-44 0 -79 21t-54.5 58.5t-19.5 84.5t19.5 84t54.5 58.5t79 21.5t78.5 -21t54 -58
t19.5 -85t-19.5 -85t-54 -58t-78.5 -21z" />
    <glyph glyph-name="Emacron" unicode="&#x112;" horiz-adv-x="595" 
d="M72 0h495v120h-359v194h339v120h-339v191h359v120h-495v-745zM180 861h281v97h-281v-97z" />
    <glyph glyph-name="emacron" unicode="&#x113;" horiz-adv-x="612" 
d="M319 -12q83 0 145.5 37.5t87.5 95.5l-106 52q-18 -31 -49.5 -50.5t-76.5 -19.5q-59 0 -99 36t-46 96h392q4 11 5.5 25.5t1.5 29.5q0 73 -31 133t-90 96.5t-144 36.5q-76 0 -137.5 -37t-97 -100.5t-35.5 -145.5q0 -79 35 -144t98 -103t147 -38zM309 448q52 0 86.5 -31.5
t38.5 -81.5h-256q11 54 46.5 83.5t84.5 29.5zM167 659h281v97h-281v-97z" />
    <glyph glyph-name="Ebreve" unicode="&#x114;" horiz-adv-x="595" 
d="M72 0h495v120h-359v194h339v120h-339v191h359v120h-495v-745zM320 842q45 0 81.5 20t58 53.5t21.5 72.5h-103q0 -23 -16.5 -38.5t-41.5 -15.5t-41.5 15.5t-16.5 38.5h-103q0 -39 22 -72.5t58.5 -53.5t80.5 -20z" />
    <glyph glyph-name="ebreve" unicode="&#x115;" horiz-adv-x="612" 
d="M319 -12q83 0 145.5 37.5t87.5 95.5l-106 52q-18 -31 -49.5 -50.5t-76.5 -19.5q-59 0 -99 36t-46 96h392q4 11 5.5 25.5t1.5 29.5q0 73 -31 133t-90 96.5t-144 36.5q-76 0 -137.5 -37t-97 -100.5t-35.5 -145.5q0 -79 35 -144t98 -103t147 -38zM309 448q52 0 86.5 -31.5
t38.5 -81.5h-256q11 54 46.5 83.5t84.5 29.5zM307 640q45 0 81.5 20t58 53.5t21.5 72.5h-103q0 -23 -16.5 -38.5t-41.5 -15.5t-41.5 15.5t-16.5 38.5h-103q0 -39 22 -72.5t58.5 -53.5t80.5 -20z" />
    <glyph glyph-name="Edotaccent" unicode="&#x116;" horiz-adv-x="595" 
d="M72 0h495v120h-359v194h339v120h-339v191h359v120h-495v-745zM320 847q29 0 50.5 21t21.5 52q0 30 -21.5 51t-50.5 21q-31 0 -52 -21t-21 -51t21 -51.5t52 -21.5z" />
    <glyph glyph-name="edotaccent" unicode="&#x117;" horiz-adv-x="612" 
d="M319 -12q83 0 145.5 37.5t87.5 95.5l-106 52q-18 -31 -49.5 -50.5t-76.5 -19.5q-59 0 -99 36t-46 96h392q4 11 5.5 25.5t1.5 29.5q0 73 -31 133t-90 96.5t-144 36.5q-76 0 -137.5 -37t-97 -100.5t-35.5 -145.5q0 -79 35 -144t98 -103t147 -38zM309 448q52 0 86.5 -31.5
t38.5 -81.5h-256q11 54 46.5 83.5t84.5 29.5zM307 645q29 0 50.5 21t21.5 52q0 30 -21.5 51t-50.5 21q-31 0 -52 -21t-21 -51t21 -51.5t52 -21.5z" />
    <glyph glyph-name="Eogonek" unicode="&#x118;" horiz-adv-x="595" 
d="M72 0h495v120h-359v194h339v120h-339v191h359v120h-495v-745zM438 -202q33 0 68 11t72 40l-40 68q-20 -12 -42 -20t-45 -8q-29 0 -44.5 13t-15.5 33q0 21 20.5 41.5t75.5 35.5v33h-40q-43 -5 -78.5 -23.5t-56 -47t-20.5 -65.5q0 -52 42 -81.5t104 -29.5z" />
    <glyph glyph-name="eogonek" unicode="&#x119;" horiz-adv-x="612" 
d="M319 -12q83 0 145.5 37.5t87.5 95.5l-106 52q-18 -31 -49.5 -50.5t-76.5 -19.5q-59 0 -99 36t-46 96h392q4 11 5.5 25.5t1.5 29.5q0 73 -31 133t-90 96.5t-144 36.5q-76 0 -137.5 -37t-97 -100.5t-35.5 -145.5q0 -79 35 -144t98 -103t147 -38zM309 448q52 0 86.5 -31.5
t38.5 -81.5h-256q11 54 46.5 83.5t84.5 29.5zM290 -206q33 0 68 11t72 40l-40 68q-20 -12 -42 -20t-45 -8q-29 0 -44.5 13t-15.5 33q0 21 20.5 41.5t75.5 35.5v33h-40q-43 -5 -78.5 -23.5t-56 -47t-20.5 -65.5q0 -52 42 -81.5t104 -29.5z" />
    <glyph glyph-name="Ecaron" unicode="&#x11a;" horiz-adv-x="595" 
d="M72 0h495v120h-359v194h339v120h-339v191h359v120h-495v-745zM251 842h136l120 144h-119l-68 -79l-66 79h-122z" />
    <glyph glyph-name="ecaron" unicode="&#x11b;" horiz-adv-x="612" 
d="M319 -12q83 0 145.5 37.5t87.5 95.5l-106 52q-18 -31 -49.5 -50.5t-76.5 -19.5q-59 0 -99 36t-46 96h392q4 11 5.5 25.5t1.5 29.5q0 73 -31 133t-90 96.5t-144 36.5q-76 0 -137.5 -37t-97 -100.5t-35.5 -145.5q0 -79 35 -144t98 -103t147 -38zM309 448q52 0 86.5 -31.5
t38.5 -81.5h-256q11 54 46.5 83.5t84.5 29.5zM238 640h136l120 144h-119l-68 -79l-66 79h-122z" />
    <glyph glyph-name="Gcircumflex" unicode="&#x11c;" horiz-adv-x="808" 
d="M425 -12q66 0 128 22.5t111.5 67t78.5 110t29 152.5v75h-350v-115h214v-3q0 -57 -29 -98.5t-77 -64t-105 -22.5q-70 0 -124 33t-84.5 91.5t-30.5 136.5t30 136.5t83 91t123 32.5q71 0 121 -36t72 -94l121 58q-19 53 -63 97.5t-107.5 71.5t-143.5 27t-148 -28.5t-118 -80
t-78 -122t-28 -153.5t28.5 -153.5t79.5 -122.5t119 -80.5t148 -28.5zM216 842h122l66 79l68 -79h119l-120 144h-136z" />
    <glyph glyph-name="gcircumflex" unicode="&#x11d;" horiz-adv-x="652" 
d="M325 -220q78 0 138 32t94 88t34 127v517h-124v-63q-62 75 -167 75q-75 0 -134 -34.5t-93 -94.5t-34 -137q0 -76 34 -137t94 -96t136 -35q99 0 157 64v-59q0 -60 -38 -93.5t-97 -33.5q-52 0 -87.5 23.5t-47.5 61.5l-122 -46q26 -72 95.5 -115.5t161.5 -43.5zM319 143
q-63 0 -103.5 41.5t-40.5 104.5q0 42 18.5 75.5t51.5 52.5t74 19q62 0 101.5 -41.5t39.5 -105.5t-39.5 -105t-101.5 -41zM137 640h122l66 79l68 -79h119l-120 144h-136z" />
    <glyph glyph-name="Gbreve" unicode="&#x11e;" horiz-adv-x="808" 
d="M425 -12q66 0 128 22.5t111.5 67t78.5 110t29 152.5v75h-350v-115h214v-3q0 -57 -29 -98.5t-77 -64t-105 -22.5q-70 0 -124 33t-84.5 91.5t-30.5 136.5t30 136.5t83 91t123 32.5q71 0 121 -36t72 -94l121 58q-19 53 -63 97.5t-107.5 71.5t-143.5 27t-148 -28.5t-118 -80
t-78 -122t-28 -153.5t28.5 -153.5t79.5 -122.5t119 -80.5t148 -28.5zM405 842q45 0 81.5 20t58 53.5t21.5 72.5h-103q0 -23 -16.5 -38.5t-41.5 -15.5t-41.5 15.5t-16.5 38.5h-103q0 -39 22 -72.5t58.5 -53.5t80.5 -20z" />
    <glyph glyph-name="gbreve" unicode="&#x11f;" horiz-adv-x="652" 
d="M325 -220q78 0 138 32t94 88t34 127v517h-124v-63q-62 75 -167 75q-75 0 -134 -34.5t-93 -94.5t-34 -137q0 -76 34 -137t94 -96t136 -35q99 0 157 64v-59q0 -60 -38 -93.5t-97 -33.5q-52 0 -87.5 23.5t-47.5 61.5l-122 -46q26 -72 95.5 -115.5t161.5 -43.5zM319 143
q-63 0 -103.5 41.5t-40.5 104.5q0 42 18.5 75.5t51.5 52.5t74 19q62 0 101.5 -41.5t39.5 -105.5t-39.5 -105t-101.5 -41zM326 640q45 0 81.5 20t58 53.5t21.5 72.5h-103q0 -23 -16.5 -38.5t-41.5 -15.5t-41.5 15.5t-16.5 38.5h-103q0 -39 22 -72.5t58.5 -53.5t80.5 -20z" />
    <glyph glyph-name="Gdotaccent" unicode="&#x120;" horiz-adv-x="808" 
d="M425 -12q66 0 128 22.5t111.5 67t78.5 110t29 152.5v75h-350v-115h214v-3q0 -57 -29 -98.5t-77 -64t-105 -22.5q-70 0 -124 33t-84.5 91.5t-30.5 136.5t30 136.5t83 91t123 32.5q71 0 121 -36t72 -94l121 58q-19 53 -63 97.5t-107.5 71.5t-143.5 27t-148 -28.5t-118 -80
t-78 -122t-28 -153.5t28.5 -153.5t79.5 -122.5t119 -80.5t148 -28.5zM405 847q29 0 50.5 21t21.5 52q0 30 -21.5 51t-50.5 21q-31 0 -52 -21t-21 -51t21 -51.5t52 -21.5z" />
    <glyph glyph-name="gdotaccent" unicode="&#x121;" horiz-adv-x="652" 
d="M325 -220q78 0 138 32t94 88t34 127v517h-124v-63q-62 75 -167 75q-75 0 -134 -34.5t-93 -94.5t-34 -137q0 -76 34 -137t94 -96t136 -35q99 0 157 64v-59q0 -60 -38 -93.5t-97 -33.5q-52 0 -87.5 23.5t-47.5 61.5l-122 -46q26 -72 95.5 -115.5t161.5 -43.5zM319 143
q-63 0 -103.5 41.5t-40.5 104.5q0 42 18.5 75.5t51.5 52.5t74 19q62 0 101.5 -41.5t39.5 -105.5t-39.5 -105t-101.5 -41zM326 645q29 0 50.5 21t21.5 52q0 30 -21.5 51t-50.5 21q-31 0 -52 -21t-21 -51t21 -51.5t52 -21.5z" />
    <glyph glyph-name="uni0122" unicode="&#x122;" horiz-adv-x="808" 
d="M425 -12q66 0 128 22.5t111.5 67t78.5 110t29 152.5v75h-350v-115h214v-3q0 -57 -29 -98.5t-77 -64t-105 -22.5q-70 0 -124 33t-84.5 91.5t-30.5 136.5t30 136.5t83 91t123 32.5q71 0 121 -36t72 -94l121 58q-19 53 -63 97.5t-107.5 71.5t-143.5 27t-148 -28.5t-118 -80
t-78 -122t-28 -153.5t28.5 -153.5t79.5 -122.5t119 -80.5t148 -28.5zM329 -376q152 32 152 210v86h-132v-140h61q-12 -75 -81 -92v-64z" />
    <glyph glyph-name="uni0123" unicode="&#x123;" horiz-adv-x="652" 
d="M325 -220q78 0 138 32t94 88t34 127v517h-124v-63q-62 75 -167 75q-75 0 -134 -34.5t-93 -94.5t-34 -137q0 -76 34 -137t94 -96t136 -35q99 0 157 64v-59q0 -60 -38 -93.5t-97 -33.5q-52 0 -87.5 23.5t-47.5 61.5l-122 -46q26 -72 95.5 -115.5t161.5 -43.5zM319 143
q-63 0 -103.5 41.5t-40.5 104.5q0 42 18.5 75.5t51.5 52.5t74 19q62 0 101.5 -41.5t39.5 -105.5t-39.5 -105t-101.5 -41zM260 611h132v140h-61q5 30 26 52t55 30v64q-75 -16 -113.5 -68t-38.5 -132v-86z" />
    <glyph glyph-name="Hcircumflex" unicode="&#x124;" horiz-adv-x="733" 
d="M72 0h136v300h317v-300h137v745h-137v-325h-317v325h-136v-745zM178 842h122l66 79l68 -79h119l-120 144h-136z" />
    <glyph glyph-name="hcircumflex" unicode="&#x125;" 
d="M61 0h131v319q0 53 31 85t79 32t79 -31.5t31 -85.5v-319h131v350q0 61 -26 107.5t-72.5 72.5t-106.5 26q-47 0 -85 -16.5t-61 -49.5v264h-131v-754zM-62 851h122l66 79l68 -79h119l-120 144h-136z" />
    <glyph glyph-name="Hbar" unicode="&#x126;" horiz-adv-x="733" 
d="M72 0h136v300h317v-300h137v553h85v84h-85v108h-137v-108h-317v108h-136v-108h-85v-84h85v-553zM208 420v133h317v-133h-317z" />
    <glyph glyph-name="hbar" unicode="&#x127;" 
d="M61 0h131v319q0 53 31 85t79 32t79 -31.5t31 -85.5v-319h131v350q0 61 -26 107.5t-72.5 72.5t-106.5 26q-47 0 -85 -16.5t-61 -49.5v108h97v84h-97v72h-131v-72h-97v-84h97v-598z" />
    <glyph glyph-name="Itilde" unicode="&#x128;" horiz-adv-x="279" 
d="M72 0h136v745h-136v-745zM213 854q42 0 65.5 30.5t23.5 101.5h-84q0 -17 -7.5 -30t-22.5 -13q-18 0 -31.5 12t-31.5 24t-49 12q-40 0 -68 -30.5t-28 -102.5h83q2 19 9 31.5t23 12.5q18 0 32.5 -12t33.5 -24t52 -12z" />
    <glyph glyph-name="itilde" unicode="&#x129;" horiz-adv-x="228" 
d="M49 0h131v544h-131v-544zM187 652q42 0 65.5 30.5t23.5 101.5h-84q0 -17 -7.5 -30t-22.5 -13q-18 0 -31.5 12t-31.5 24t-49 12q-40 0 -68 -30.5t-28 -102.5h83q2 19 9 31.5t23 12.5q18 0 32.5 -12t33.5 -24t52 -12z" />
    <glyph glyph-name="Imacron" unicode="&#x12a;" horiz-adv-x="279" 
d="M72 0h136v745h-136v-745zM0 861h281v97h-281v-97z" />
    <glyph glyph-name="imacron" unicode="&#x12b;" horiz-adv-x="228" 
d="M49 0h131v544h-131v-544zM-26 659h281v97h-281v-97z" />
    <glyph glyph-name="Ibreve" unicode="&#x12c;" horiz-adv-x="279" 
d="M72 0h136v745h-136v-745zM140 842q45 0 81.5 20t58 53.5t21.5 72.5h-103q0 -23 -16.5 -38.5t-41.5 -15.5t-41.5 15.5t-16.5 38.5h-103q0 -39 22 -72.5t58.5 -53.5t80.5 -20z" />
    <glyph glyph-name="ibreve" unicode="&#x12d;" horiz-adv-x="228" 
d="M49 0h131v544h-131v-544zM114 640q45 0 81.5 20t58 53.5t21.5 72.5h-103q0 -23 -16.5 -38.5t-41.5 -15.5t-41.5 15.5t-16.5 38.5h-103q0 -39 22 -72.5t58.5 -53.5t80.5 -20z" />
    <glyph glyph-name="Iogonek" unicode="&#x12e;" horiz-adv-x="279" 
d="M72 0h136v745h-136v-745zM111 -202q33 0 68 11t72 40l-40 68q-20 -12 -42 -20t-45 -8q-29 0 -44.5 13t-15.5 33q0 21 20.5 41.5t75.5 35.5v33h-40q-43 -5 -78.5 -23.5t-56 -47t-20.5 -65.5q0 -52 42 -81.5t104 -29.5z" />
    <glyph glyph-name="iogonek" unicode="&#x12f;" horiz-adv-x="228" 
d="M49 0h131v544h-131v-544zM115 645q29 0 50.5 21t21.5 52q0 30 -21.5 51t-50.5 21q-31 0 -52 -21t-21 -51t21 -51.5t52 -21.5zM85 -206q33 0 68 11t72 40l-40 68q-20 -12 -42 -20t-45 -8q-29 0 -44.5 13t-15.5 33q0 21 20.5 41.5t75.5 35.5v33h-40q-43 -5 -78.5 -23.5
t-56 -47t-20.5 -65.5q0 -52 42 -81.5t104 -29.5z" />
    <glyph glyph-name="Idotaccent" unicode="&#x130;" horiz-adv-x="279" 
d="M72 0h136v745h-136v-745zM141 847q29 0 50.5 21t21.5 52q0 30 -21.5 51t-50.5 21q-31 0 -52 -21t-21 -51t21 -51.5t52 -21.5z" />
    <glyph glyph-name="dotlessi" unicode="&#x131;" horiz-adv-x="228" 
d="M49 0h131v544h-131v-544z" />
    <glyph glyph-name="Jcircumflex" unicode="&#x134;" horiz-adv-x="393" 
d="M39 0h43q74 0 128.5 29t84 81t29.5 121v514h-137v-519q0 -46 -28.5 -73.5t-76.5 -27.5h-43v-125zM67 842h122l66 79l68 -79h119l-120 144h-136z" />
    <glyph glyph-name="jcircumflex" unicode="&#x135;" horiz-adv-x="252" 
d="M-14 -221q95 0 150.5 50t55.5 143v572h-131v-572q0 -39 -23.5 -58.5t-65.5 -19.5q-19 0 -36 3v-114q9 -2 23 -3t27 -1zM-62 640h122l66 79l68 -79h119l-120 144h-136z" />
    <glyph glyph-name="uni0136" unicode="&#x136;" horiz-adv-x="679" 
d="M72 0h136v209l100 119l200 -328h160l-267 439l258 306h-171l-280 -331v331h-136v-745zM264 -376q152 32 152 210v86h-132v-140h61q-12 -75 -81 -92v-64z" />
    <glyph glyph-name="uni0137" unicode="&#x137;" horiz-adv-x="577" 
d="M61 0h131v166l70 76l153 -242h150l-205 325l201 219h-163l-206 -216v420h-131v-748zM213 -376q152 32 152 210v86h-132v-140h61q-12 -75 -81 -92v-64z" />
    <glyph glyph-name="kgreenlandic" unicode="&#x138;" horiz-adv-x="577" 
d="M61 0h131v225h67l157 -225h150l-192 278l168 266h-146l-130 -202h-74v202h-131v-544z" />
    <glyph glyph-name="Lacute" unicode="&#x139;" horiz-adv-x="543" 
d="M72 0h455v120h-319v625h-136v-745zM83 842h114l96 144h-147z" />
    <glyph glyph-name="lacute" unicode="&#x13a;" horiz-adv-x="252" 
d="M61 0h131v745h-131v-745zM69 842h114l96 144h-147z" />
    <glyph glyph-name="uni013B" unicode="&#x13b;" horiz-adv-x="543" 
d="M72 0h455v120h-319v625h-136v-745zM223 -376q152 32 152 210v86h-132v-140h61q-12 -75 -81 -92v-64z" />
    <glyph glyph-name="uni013C" unicode="&#x13c;" horiz-adv-x="252" 
d="M61 0h131v745h-131v-745zM51 -376q152 32 152 210v86h-132v-140h61q-12 -75 -81 -92v-64z" />
    <glyph glyph-name="Lcaron" unicode="&#x13d;" horiz-adv-x="631" 
d="M72 0h455v120h-319v625h-136v-745zM382 561h103l19 184h-141z" />
    <glyph glyph-name="lcaron" unicode="&#x13e;" horiz-adv-x="426" 
d="M61 0h131v745h-131v-745zM292 646h103l19 184h-141z" />
    <glyph glyph-name="Ldot" unicode="&#x13f;" horiz-adv-x="543" 
d="M72 0h455v120h-319v625h-136v-745zM368 299q30 0 51 21t21 52q0 30 -21 51t-51 21t-51.5 -21t-21.5 -51t21.5 -51.5t51.5 -21.5z" />
    <glyph glyph-name="ldot" unicode="&#x140;" horiz-adv-x="428" 
d="M61 0h131v745h-131v-745zM325 299q30 0 51 21t21 52q0 30 -21 51t-51 21t-51.5 -21t-21.5 -51t21.5 -51.5t51.5 -21.5z" />
    <glyph glyph-name="Lslash" unicode="&#x141;" horiz-adv-x="543" 
d="M72 0h455v120h-319v229l101 30v88l-101 -30v308h-136v-348l-100 -30v-88l100 30v-309z" />
    <glyph glyph-name="lslash" unicode="&#x142;" horiz-adv-x="252" 
d="M61 0h131v370l78 27v89l-78 -27v286h-131v-332l-78 -27v-89l78 27v-324z" />
    <glyph glyph-name="Nacute" unicode="&#x143;" horiz-adv-x="741" 
d="M72 0h136v487l354 -487h107v745h-136v-478l-355 478h-106v-745zM313 842h114l96 144h-147z" />
    <glyph glyph-name="nacute" unicode="&#x144;" 
d="M61 0h131v319q0 53 30.5 85t79.5 32t79.5 -31.5t30.5 -85.5v-319h131v350q0 61 -26 107.5t-72.5 72.5t-106.5 26q-51 0 -91.5 -20t-62.5 -59v67h-123v-544zM240 640h114l96 144h-147z" />
    <glyph glyph-name="uni0145" unicode="&#x145;" horiz-adv-x="741" 
d="M72 0h136v487l354 -487h107v745h-136v-478l-355 478h-106v-745zM295 -376q152 32 152 210v86h-132v-140h61q-12 -75 -81 -92v-64z" />
    <glyph glyph-name="uni0146" unicode="&#x146;" 
d="M61 0h131v319q0 53 30.5 85t79.5 32t79.5 -31.5t30.5 -85.5v-319h131v350q0 61 -26 107.5t-72.5 72.5t-106.5 26q-51 0 -91.5 -20t-62.5 -59v67h-123v-544zM221 -376q152 32 152 210v86h-132v-140h61q-12 -75 -81 -92v-64z" />
    <glyph glyph-name="Ncaron" unicode="&#x147;" horiz-adv-x="741" 
d="M72 0h136v487l354 -487h107v745h-136v-478l-355 478h-106v-745zM302 842h136l120 144h-119l-68 -79l-66 79h-122z" />
    <glyph glyph-name="ncaron" unicode="&#x148;" 
d="M61 0h131v319q0 53 30.5 85t79.5 32t79.5 -31.5t30.5 -85.5v-319h131v350q0 61 -26 107.5t-72.5 72.5t-106.5 26q-51 0 -91.5 -20t-62.5 -59v67h-123v-544zM228 640h136l120 144h-119l-68 -79l-66 79h-122z" />
    <glyph glyph-name="Eng" unicode="&#x14a;" horiz-adv-x="741" 
d="M463 -221q95 0 150.5 50t55.5 143v773h-136v-478l-355 478h-106v-745h136v488l329 -454v-62q0 -39 -23 -58t-65 -19q-18 0 -36 3v-115q9 -2 23 -3t27 -1z" />
    <glyph glyph-name="eng" unicode="&#x14b;" horiz-adv-x="600" 
d="M331 -221q94 0 149.5 50t55.5 143v378q0 61 -26 107.5t-72.5 72.5t-106.5 26q-51 0 -90.5 -19.5t-62.5 -57.5v65h-124v-544h131v319q0 53 31 85t79 32q49 0 79.5 -31.5t30.5 -85.5v-347q0 -39 -23.5 -58.5t-65.5 -19.5q-18 0 -36 3v-114q9 -2 23.5 -3t27.5 -1z" />
    <glyph glyph-name="Omacron" unicode="&#x14c;" horiz-adv-x="878" 
d="M439 -12q83 0 154 29t124 81t82.5 122.5t29.5 152.5q0 83 -29.5 153t-82.5 121.5t-124 80.5t-154 29t-154 -29t-123.5 -80.5t-82 -121.5t-29.5 -153q0 -82 29.5 -152.5t82.5 -122.5t124 -81t153 -29zM439 112q-72 0 -129.5 34t-90.5 93t-33 134t33 133.5t90.5 92.5
t129.5 34q73 0 130 -34t90 -92.5t33 -133.5t-33 -134t-90 -93t-130 -34zM299 861h281v97h-281v-97z" />
    <glyph glyph-name="omacron" unicode="&#x14d;" horiz-adv-x="652" 
d="M327 -12q79 0 144 36.5t104 101t39 146.5t-38.5 146t-103.5 101t-145 37q-81 0 -146 -37t-103.5 -101t-38.5 -146t38.5 -146t104 -101t145.5 -37zM327 108q-44 0 -78.5 21t-54 58.5t-19.5 84.5t19.5 84t54 58.5t78.5 21.5t77.5 -21.5t53 -58.5t19.5 -84t-19.5 -84.5
t-53 -58.5t-77.5 -21zM187 659h281v97h-281v-97z" />
    <glyph glyph-name="Obreve" unicode="&#x14e;" horiz-adv-x="878" 
d="M439 -12q83 0 154 29t124 81t82.5 122.5t29.5 152.5q0 83 -29.5 153t-82.5 121.5t-124 80.5t-154 29t-154 -29t-123.5 -80.5t-82 -121.5t-29.5 -153q0 -82 29.5 -152.5t82.5 -122.5t124 -81t153 -29zM439 112q-72 0 -129.5 34t-90.5 93t-33 134t33 133.5t90.5 92.5
t129.5 34q73 0 130 -34t90 -92.5t33 -133.5t-33 -134t-90 -93t-130 -34zM439 842q45 0 81.5 20t58 53.5t21.5 72.5h-103q0 -23 -16.5 -38.5t-41.5 -15.5t-41.5 15.5t-16.5 38.5h-103q0 -39 22 -72.5t58.5 -53.5t80.5 -20z" />
    <glyph glyph-name="obreve" unicode="&#x14f;" horiz-adv-x="652" 
d="M327 -12q79 0 144 36.5t104 101t39 146.5t-38.5 146t-103.5 101t-145 37q-81 0 -146 -37t-103.5 -101t-38.5 -146t38.5 -146t104 -101t145.5 -37zM327 108q-44 0 -78.5 21t-54 58.5t-19.5 84.5t19.5 84t54 58.5t78.5 21.5t77.5 -21.5t53 -58.5t19.5 -84t-19.5 -84.5
t-53 -58.5t-77.5 -21zM327 640q45 0 81.5 20t58 53.5t21.5 72.5h-103q0 -23 -16.5 -38.5t-41.5 -15.5t-41.5 15.5t-16.5 38.5h-103q0 -39 22 -72.5t58.5 -53.5t80.5 -20z" />
    <glyph glyph-name="Ohungarumlaut" unicode="&#x150;" horiz-adv-x="878" 
d="M439 -12q83 0 154 29t124 81t82.5 122.5t29.5 152.5q0 83 -29.5 153t-82.5 121.5t-124 80.5t-154 29t-154 -29t-123.5 -80.5t-82 -121.5t-29.5 -153q0 -82 29.5 -152.5t82.5 -122.5t124 -81t153 -29zM439 112q-72 0 -129.5 34t-90.5 93t-33 134t33 133.5t90.5 92.5
t129.5 34q73 0 130 -34t90 -92.5t33 -133.5t-33 -134t-90 -93t-130 -34zM289 842h114l96 144h-147zM475 842h115l95 144h-147z" />
    <glyph glyph-name="ohungarumlaut" unicode="&#x151;" horiz-adv-x="652" 
d="M327 -12q79 0 144 36.5t104 101t39 146.5t-38.5 146t-103.5 101t-145 37q-81 0 -146 -37t-103.5 -101t-38.5 -146t38.5 -146t104 -101t145.5 -37zM327 108q-44 0 -78.5 21t-54 58.5t-19.5 84.5t19.5 84t54 58.5t78.5 21.5t77.5 -21.5t53 -58.5t19.5 -84t-19.5 -84.5
t-53 -58.5t-77.5 -21zM176 640h114l96 144h-147zM362 640h115l95 144h-147z" />
    <glyph glyph-name="OE" unicode="&#x152;" horiz-adv-x="1221" 
d="M439 -12q154 0 258 100v-88h495l1 120h-359v194h339v120h-339v191h359v120h-496v-86q-50 47 -116.5 72.5t-141.5 25.5q-83 0 -154 -29t-123.5 -80.5t-82 -121.5t-29.5 -153q0 -82 29.5 -152.5t82.5 -122.5t124 -81t153 -29zM439 112q-72 0 -129.5 34t-90.5 93t-33 134
t33 133.5t90.5 92.5t129.5 34q73 0 130 -34t90 -92.5t33 -133.5t-33 -134t-90 -93t-130 -34z" />
    <glyph glyph-name="oe" unicode="&#x153;" horiz-adv-x="1055" 
d="M327 -12q66 0 122.5 26t95.5 72q38 -45 93 -71.5t124 -26.5q83 0 145.5 37.5t87.5 95.5l-106 52q-18 -31 -49.5 -50.5t-76.5 -19.5q-59 0 -99 35.5t-46 96.5h392q4 11 5.5 25.5t1.5 29.5q0 73 -31 133t-90 96.5t-144 36.5q-64 0 -117.5 -26t-89.5 -72q-39 45 -95.5 71.5
t-122.5 26.5q-81 0 -146 -37t-103.5 -101t-38.5 -146t38.5 -146t104 -101t145.5 -37zM621 335q10 54 46 83.5t85 29.5q52 0 87 -31.5t38 -81.5h-256zM327 108q-44 0 -78.5 21t-54 58.5t-19.5 84.5t19.5 84t54 58.5t78.5 21.5t77.5 -21.5t53 -58.5t19.5 -84t-19.5 -84.5
t-53 -58.5t-77.5 -21z" />
    <glyph glyph-name="Racute" unicode="&#x154;" horiz-adv-x="661" 
d="M72 0h136v275h128l154 -275h154l-171 299q62 26 98.5 80t36.5 131q0 76 -33 128t-91.5 79.5t-134.5 27.5h-277v-745zM208 395v230h143q55 0 88 -31t33 -84q0 -52 -33 -83.5t-88 -31.5h-143zM272 842h114l96 144h-147z" />
    <glyph glyph-name="racute" unicode="&#x155;" horiz-adv-x="374" 
d="M61 0h131v303q0 62 34.5 96.5t89.5 34.5h47v116h-32q-50 0 -88 -18t-59 -65v77h-123v-544zM155 640h114l96 144h-147z" />
    <glyph glyph-name="uni0156" unicode="&#x156;" horiz-adv-x="661" 
d="M72 0h136v275h128l154 -275h154l-171 299q62 26 98.5 80t36.5 131q0 76 -33 128t-91.5 79.5t-134.5 27.5h-277v-745zM208 395v230h143q55 0 88 -31t33 -84q0 -52 -33 -83.5t-88 -31.5h-143zM254 -376q152 32 152 210v86h-132v-140h61q-12 -75 -81 -92v-64z" />
    <glyph glyph-name="uni0157" unicode="&#x157;" horiz-adv-x="374" 
d="M61 0h131v303q0 62 34.5 96.5t89.5 34.5h47v116h-32q-50 0 -88 -18t-59 -65v77h-123v-544zM51 -376q152 32 152 210v86h-132v-140h61q-12 -75 -81 -92v-64z" />
    <glyph glyph-name="Rcaron" unicode="&#x158;" horiz-adv-x="661" 
d="M72 0h136v275h128l154 -275h154l-171 299q62 26 98.5 80t36.5 131q0 76 -33 128t-91.5 79.5t-134.5 27.5h-277v-745zM208 395v230h143q55 0 88 -31t33 -84q0 -52 -33 -83.5t-88 -31.5h-143zM261 842h136l120 144h-119l-68 -79l-66 79h-122z" />
    <glyph glyph-name="rcaron" unicode="&#x159;" horiz-adv-x="374" 
d="M61 0h131v303q0 62 34.5 96.5t89.5 34.5h47v116h-32q-50 0 -88 -18t-59 -65v77h-123v-544zM143 640h136l120 144h-119l-68 -79l-66 79h-122z" />
    <glyph glyph-name="Sacute" unicode="&#x15a;" horiz-adv-x="647" 
d="M338 -12q77 0 135 28t91 77t33 113q0 149 -178 206l-137 43q-40 13 -60.5 36.5t-20.5 54.5q0 41 31.5 66.5t83.5 25.5q58 0 102 -30.5t66 -86.5l112 50q-30 84 -104.5 135t-175.5 51q-73 0 -129.5 -27.5t-88 -76.5t-31.5 -113q0 -73 44 -126.5t131 -81.5l143 -46
q39 -13 58.5 -34t19.5 -54q0 -41 -32.5 -66t-85.5 -25q-64 0 -115 36.5t-78 100.5l-113 -49q20 -62 63.5 -108.5t104 -72.5t131.5 -26zM267 842h114l96 144h-147z" />
    <glyph glyph-name="sacute" unicode="&#x15b;" horiz-adv-x="514" 
d="M268 -12q62 0 108 21t72 58.5t26 86.5q0 57 -36 98t-104 60l-87 26q-28 8 -46 21t-18 36q0 24 19 39t52 15q41 0 74.5 -22t46.5 -59l100 47q-25 66 -84 103.5t-136 37.5q-59 0 -104.5 -21t-71 -58.5t-25.5 -87.5q0 -56 35.5 -97t104.5 -61l89 -25q26 -7 44.5 -20.5
t18.5 -36.5q0 -27 -21.5 -42.5t-56.5 -15.5q-46 0 -83 26t-59 72l-98 -47q24 -70 88.5 -112t151.5 -42zM200 640h114l96 144h-147z" />
    <glyph glyph-name="Scircumflex" unicode="&#x15c;" horiz-adv-x="647" 
d="M338 -12q77 0 135 28t91 77t33 113q0 149 -178 206l-137 43q-40 13 -60.5 36.5t-20.5 54.5q0 41 31.5 66.5t83.5 25.5q58 0 102 -30.5t66 -86.5l112 50q-30 84 -104.5 135t-175.5 51q-73 0 -129.5 -27.5t-88 -76.5t-31.5 -113q0 -73 44 -126.5t131 -81.5l143 -46
q39 -13 58.5 -34t19.5 -54q0 -41 -32.5 -66t-85.5 -25q-64 0 -115 36.5t-78 100.5l-113 -49q20 -62 63.5 -108.5t104 -72.5t131.5 -26zM135 842h122l66 79l68 -79h119l-120 144h-136z" />
    <glyph glyph-name="scircumflex" unicode="&#x15d;" horiz-adv-x="514" 
d="M268 -12q62 0 108 21t72 58.5t26 86.5q0 57 -36 98t-104 60l-87 26q-28 8 -46 21t-18 36q0 24 19 39t52 15q41 0 74.5 -22t46.5 -59l100 47q-25 66 -84 103.5t-136 37.5q-59 0 -104.5 -21t-71 -58.5t-25.5 -87.5q0 -56 35.5 -97t104.5 -61l89 -25q26 -7 44.5 -20.5
t18.5 -36.5q0 -27 -21.5 -42.5t-56.5 -15.5q-46 0 -83 26t-59 72l-98 -47q24 -70 88.5 -112t151.5 -42zM69 640h122l66 79l68 -79h119l-120 144h-136z" />
    <glyph glyph-name="Scedilla" unicode="&#x15e;" horiz-adv-x="647" 
d="M338 -12q77 0 135 28t91 77t33 113q0 149 -178 206l-137 43q-40 13 -60.5 36.5t-20.5 54.5q0 41 31.5 66.5t83.5 25.5q58 0 102 -30.5t66 -86.5l112 50q-30 84 -104.5 135t-175.5 51q-73 0 -129.5 -27.5t-88 -76.5t-31.5 -113q0 -73 44 -126.5t131 -81.5l143 -46
q39 -13 58.5 -34t19.5 -54q0 -41 -32.5 -66t-85.5 -25q-64 0 -115 36.5t-78 100.5l-113 -49q20 -62 63.5 -108.5t104 -72.5t131.5 -26zM319 -251q74 0 110.5 31.5t36.5 74.5q0 39 -25.5 61.5t-63.5 22.5q-7 0 -15 -1l5 62h-87l-15 -114l23 -11q5 2 16.5 4t22.5 2
q33 0 33 -29q0 -33 -51 -33q-12 0 -30 2t-32 7l-12 -68q20 -6 44 -8.5t40 -2.5z" />
    <glyph glyph-name="scedilla" unicode="&#x15f;" horiz-adv-x="514" 
d="M268 -12q62 0 108 21t72 58.5t26 86.5q0 57 -36 98t-104 60l-87 26q-28 8 -46 21t-18 36q0 24 19 39t52 15q41 0 74.5 -22t46.5 -59l100 47q-25 66 -84 103.5t-136 37.5q-59 0 -104.5 -21t-71 -58.5t-25.5 -87.5q0 -56 35.5 -97t104.5 -61l89 -25q26 -7 44.5 -20.5
t18.5 -36.5q0 -27 -21.5 -42.5t-56.5 -15.5q-46 0 -83 26t-59 72l-98 -47q24 -70 88.5 -112t151.5 -42zM252 -251q74 0 110.5 31.5t36.5 74.5q0 39 -25.5 61.5t-63.5 22.5q-7 0 -15 -1l5 62h-87l-15 -114l23 -11q5 2 16.5 4t22.5 2q33 0 33 -29q0 -33 -51 -33q-12 0 -30 2
t-32 7l-12 -68q20 -6 44 -8.5t40 -2.5z" />
    <glyph glyph-name="Scaron" unicode="&#x160;" horiz-adv-x="647" 
d="M338 -12q77 0 135 28t91 77t33 113q0 149 -178 206l-137 43q-40 13 -60.5 36.5t-20.5 54.5q0 41 31.5 66.5t83.5 25.5q58 0 102 -30.5t66 -86.5l112 50q-30 84 -104.5 135t-175.5 51q-73 0 -129.5 -27.5t-88 -76.5t-31.5 -113q0 -73 44 -126.5t131 -81.5l143 -46
q39 -13 58.5 -34t19.5 -54q0 -41 -32.5 -66t-85.5 -25q-64 0 -115 36.5t-78 100.5l-113 -49q20 -62 63.5 -108.5t104 -72.5t131.5 -26zM255 842h136l120 144h-119l-68 -79l-66 79h-122z" />
    <glyph glyph-name="scaron" unicode="&#x161;" horiz-adv-x="514" 
d="M268 -12q62 0 108 21t72 58.5t26 86.5q0 57 -36 98t-104 60l-87 26q-28 8 -46 21t-18 36q0 24 19 39t52 15q41 0 74.5 -22t46.5 -59l100 47q-25 66 -84 103.5t-136 37.5q-59 0 -104.5 -21t-71 -58.5t-25.5 -87.5q0 -56 35.5 -97t104.5 -61l89 -25q26 -7 44.5 -20.5
t18.5 -36.5q0 -27 -21.5 -42.5t-56.5 -15.5q-46 0 -83 26t-59 72l-98 -47q24 -70 88.5 -112t151.5 -42zM189 640h136l120 144h-119l-68 -79l-66 79h-122z" />
    <glyph glyph-name="uni0162" unicode="&#x162;" horiz-adv-x="542" 
d="M204 0h137v625h190v120h-520v-120h193v-625zM266 -251q74 0 110.5 31.5t36.5 74.5q0 39 -25.5 61.5t-63.5 22.5q-7 0 -15 -1l5 62h-87l-15 -114l23 -11q5 2 16.5 4t22.5 2q33 0 33 -29q0 -33 -51 -33q-12 0 -30 2t-32 7l-12 -68q20 -6 44 -8.5t40 -2.5z" />
    <glyph glyph-name="uni0163" unicode="&#x163;" horiz-adv-x="413" 
d="M309 -6q33 0 65 5v113q-19 -3 -35 -3q-48 0 -70 22t-22 63v233h125v117h-125v124h-131v-42q0 -40 -22 -61t-62 -21h-10v-117h94v-240q0 -91 50.5 -142t142.5 -51zM297 -251q74 0 110.5 31.5t36.5 74.5q0 39 -25.5 61.5t-63.5 22.5q-7 0 -15 -1l5 62h-87l-15 -114l23 -11
q5 2 16.5 4t22.5 2q33 0 33 -29q0 -33 -51 -33q-12 0 -30 2t-32 7l-12 -68q20 -6 44 -8.5t40 -2.5z" />
    <glyph glyph-name="Tcaron" unicode="&#x164;" horiz-adv-x="542" 
d="M204 0h137v625h190v120h-520v-120h193v-625zM202 842h136l120 144h-119l-68 -79l-66 79h-122z" />
    <glyph glyph-name="tcaron" unicode="&#x165;" horiz-adv-x="491" 
d="M309 -6q33 0 65 5v113q-19 -3 -35 -3q-48 0 -70 22t-22 63v233h125v117h-125v124h-131v-42q0 -40 -22 -61t-62 -21h-10v-117h94v-240q0 -91 50.5 -142t142.5 -51zM349 646h103l19 184h-141z" />
    <glyph glyph-name="Tbar" unicode="&#x166;" horiz-adv-x="542" 
d="M204 0h137v331h143v84h-143v210h190v120h-520v-120h193v-210h-145v-84h145v-331z" />
    <glyph glyph-name="tbar" unicode="&#x167;" horiz-adv-x="413" 
d="M24 214h92v-27q0 -91 50.5 -142t142.5 -51q33 0 65 5v113q-19 -3 -35 -3q-48 0 -70 22t-22 63v20h127v116h-127v97h125v117h-125v124h-131v-42q0 -40 -22 -61t-62 -21h-10v-117h94v-97h-92v-116z" />
    <glyph glyph-name="Utilde" unicode="&#x168;" horiz-adv-x="718" 
d="M359 -12q86 0 152.5 36t104.5 99t38 143v479h-136v-472q0 -47 -20.5 -83.5t-56 -57t-82.5 -20.5q-46 0 -82 20.5t-56.5 57t-20.5 83.5v472h-136v-479q0 -80 38 -143t104.5 -99t152.5 -36zM432 854q42 0 65.5 30.5t23.5 101.5h-84q0 -17 -7.5 -30t-22.5 -13
q-18 0 -31.5 12t-31.5 24t-49 12q-40 0 -68 -30.5t-28 -102.5h83q2 19 9 31.5t23 12.5q18 0 32.5 -12t33.5 -24t52 -12z" />
    <glyph glyph-name="utilde" unicode="&#x169;" 
d="M255 -12q51 0 90.5 19.5t62.5 57.5v-65h124v544h-131v-319q0 -54 -31 -85.5t-79 -31.5q-49 0 -79.5 31t-30.5 83v322h-131v-333q0 -100 54.5 -161.5t150.5 -61.5zM369 652q42 0 65.5 30.5t23.5 101.5h-84q0 -17 -7.5 -30t-22.5 -13q-18 0 -31.5 12t-31.5 24t-49 12
q-40 0 -68 -30.5t-28 -102.5h83q2 19 9 31.5t23 12.5q18 0 32.5 -12t33.5 -24t52 -12z" />
    <glyph glyph-name="Umacron" unicode="&#x16a;" horiz-adv-x="718" 
d="M359 -12q86 0 152.5 36t104.5 99t38 143v479h-136v-472q0 -47 -20.5 -83.5t-56 -57t-82.5 -20.5q-46 0 -82 20.5t-56.5 57t-20.5 83.5v472h-136v-479q0 -80 38 -143t104.5 -99t152.5 -36zM219 861h281v97h-281v-97z" />
    <glyph glyph-name="umacron" unicode="&#x16b;" 
d="M255 -12q51 0 90.5 19.5t62.5 57.5v-65h124v544h-131v-319q0 -54 -31 -85.5t-79 -31.5q-49 0 -79.5 31t-30.5 83v322h-131v-333q0 -100 54.5 -161.5t150.5 -61.5zM157 659h281v97h-281v-97z" />
    <glyph glyph-name="Ubreve" unicode="&#x16c;" horiz-adv-x="718" 
d="M359 -12q86 0 152.5 36t104.5 99t38 143v479h-136v-472q0 -47 -20.5 -83.5t-56 -57t-82.5 -20.5q-46 0 -82 20.5t-56.5 57t-20.5 83.5v472h-136v-479q0 -80 38 -143t104.5 -99t152.5 -36zM359 842q45 0 81.5 20t58 53.5t21.5 72.5h-103q0 -23 -16.5 -38.5t-41.5 -15.5
t-41.5 15.5t-16.5 38.5h-103q0 -39 22 -72.5t58.5 -53.5t80.5 -20z" />
    <glyph glyph-name="ubreve" unicode="&#x16d;" 
d="M255 -12q51 0 90.5 19.5t62.5 57.5v-65h124v544h-131v-319q0 -54 -31 -85.5t-79 -31.5q-49 0 -79.5 31t-30.5 83v322h-131v-333q0 -100 54.5 -161.5t150.5 -61.5zM297 640q45 0 81.5 20t58 53.5t21.5 72.5h-103q0 -23 -16.5 -38.5t-41.5 -15.5t-41.5 15.5t-16.5 38.5
h-103q0 -39 22 -72.5t58.5 -53.5t80.5 -20z" />
    <glyph glyph-name="Uring" unicode="&#x16e;" horiz-adv-x="718" 
d="M359 -12q86 0 152.5 36t104.5 99t38 143v479h-136v-472q0 -47 -20.5 -83.5t-56 -57t-82.5 -20.5q-46 0 -82 20.5t-56.5 57t-20.5 83.5v472h-136v-479q0 -80 38 -143t104.5 -99t152.5 -36zM360 785q36 0 64.5 16.5t45.5 45t17 63.5q0 36 -17 64.5t-45.5 45t-64.5 16.5
q-55 0 -91.5 -36.5t-36.5 -89.5q0 -35 17 -63.5t46 -45t65 -16.5zM360 856q-24 0 -39.5 16t-15.5 38q0 23 15.5 39t39.5 16q23 0 38 -16t15 -39q0 -22 -15 -38t-38 -16z" />
    <glyph glyph-name="uring" unicode="&#x16f;" 
d="M255 -12q51 0 90.5 19.5t62.5 57.5v-65h124v544h-131v-319q0 -54 -31 -85.5t-79 -31.5q-49 0 -79.5 31t-30.5 83v322h-131v-333q0 -100 54.5 -161.5t150.5 -61.5zM298 583q36 0 64.5 16.5t45.5 45t17 63.5q0 36 -17 64.5t-45.5 45t-64.5 16.5q-55 0 -91.5 -36.5
t-36.5 -89.5q0 -35 17 -63.5t46 -45t65 -16.5zM298 654q-24 0 -39.5 16t-15.5 38q0 23 15.5 39t39.5 16q23 0 38 -16t15 -39q0 -22 -15 -38t-38 -16z" />
    <glyph glyph-name="Uhungarumlaut" unicode="&#x170;" horiz-adv-x="718" 
d="M359 -12q86 0 152.5 36t104.5 99t38 143v479h-136v-472q0 -47 -20.5 -83.5t-56 -57t-82.5 -20.5q-46 0 -82 20.5t-56.5 57t-20.5 83.5v472h-136v-479q0 -80 38 -143t104.5 -99t152.5 -36zM209 842h114l96 144h-147zM395 842h115l95 144h-147z" />
    <glyph glyph-name="uhungarumlaut" unicode="&#x171;" 
d="M255 -12q51 0 90.5 19.5t62.5 57.5v-65h124v544h-131v-319q0 -54 -31 -85.5t-79 -31.5q-49 0 -79.5 31t-30.5 83v322h-131v-333q0 -100 54.5 -161.5t150.5 -61.5zM147 640h114l96 144h-147zM333 640h115l95 144h-147z" />
    <glyph glyph-name="Uogonek" unicode="&#x172;" horiz-adv-x="718" 
d="M359 -12q86 0 152.5 36t104.5 99t38 143v479h-136v-472q0 -47 -20.5 -83.5t-56 -57t-82.5 -20.5q-46 0 -82 20.5t-56.5 57t-20.5 83.5v472h-136v-479q0 -80 38 -143t104.5 -99t152.5 -36zM380 -202q33 0 68 11t72 40l-40 68q-20 -12 -42 -20t-45 -8q-29 0 -44.5 13
t-15.5 33q0 21 20.5 41.5t75.5 35.5v33h-40q-43 -5 -78.5 -23.5t-56 -47t-20.5 -65.5q0 -52 42 -81.5t104 -29.5z" />
    <glyph glyph-name="uogonek" unicode="&#x173;" 
d="M255 -12q51 0 90.5 19.5t62.5 57.5v-65h124v544h-131v-319q0 -54 -31 -85.5t-79 -31.5q-49 0 -79.5 31t-30.5 83v322h-131v-333q0 -100 54.5 -161.5t150.5 -61.5zM464 -206q33 0 68 11t72 40l-40 68q-20 -12 -42 -20t-45 -8q-29 0 -44.5 13t-15.5 33q0 21 20.5 41.5
t75.5 35.5v33h-40q-43 -5 -78.5 -23.5t-56 -47t-20.5 -65.5q0 -52 42 -81.5t104 -29.5z" />
    <glyph glyph-name="Wcircumflex" unicode="&#x174;" horiz-adv-x="1020" 
d="M211 0h156l143 536l143 -536h156l200 745h-146l-138 -560l-144 560h-141l-145 -560l-138 560h-146zM322 842h122l66 79l68 -79h119l-120 144h-136z" />
    <glyph glyph-name="wcircumflex" unicode="&#x175;" horiz-adv-x="883" 
d="M198 0h116l128 367l126 -367h117l187 544h-138l-114 -342l-120 342h-116l-121 -343l-114 343h-138zM253 640h122l66 79l68 -79h119l-120 144h-136z" />
    <glyph glyph-name="Ycircumflex" unicode="&#x176;" horiz-adv-x="660" 
d="M262 0h137v331l250 414h-155l-164 -277l-164 277h-155l251 -415v-330zM142 842h122l66 79l68 -79h119l-120 144h-136z" />
    <glyph glyph-name="ycircumflex" unicode="&#x177;" horiz-adv-x="586" 
d="M127 -221q77 0 128.5 43.5t82.5 122.5l237 599h-142l-140 -375l-141 375h-141l215 -544l-12 -29q-16 -34 -36.5 -55t-65.5 -21q-16 0 -34 2.5t-32 6.5v-110q17 -8 38 -11.5t43 -3.5zM104 640h122l66 79l68 -79h119l-120 144h-136z" />
    <glyph glyph-name="Ydieresis" unicode="&#x178;" horiz-adv-x="660" 
d="M262 0h137v331l250 414h-155l-164 -277l-164 277h-155l251 -415v-330zM234 847q29 0 50.5 21t21.5 52q0 30 -21.5 51t-50.5 21q-31 0 -52 -21t-21 -51t21 -51.5t52 -21.5zM429 847q29 0 50.5 21t21.5 52q0 30 -21.5 51t-50.5 21q-31 0 -52 -21t-21 -51t21 -51.5t52 -21.5
z" />
    <glyph glyph-name="Zacute" unicode="&#x179;" horiz-adv-x="571" 
d="M14 0h544v120h-370l360 518v107h-513v-120h340l-361 -518v-107zM229 842h114l96 144h-147z" />
    <glyph glyph-name="zacute" unicode="&#x17a;" horiz-adv-x="481" 
d="M14 0h454v116h-274l272 321v107h-438v-117h263l-277 -321v-106zM187 640h114l96 144h-147z" />
    <glyph glyph-name="Zdotaccent" unicode="&#x17b;" horiz-adv-x="571" 
d="M14 0h544v120h-370l360 518v107h-513v-120h340l-361 -518v-107zM287 847q29 0 50.5 21t21.5 52q0 30 -21.5 51t-50.5 21q-31 0 -52 -21t-21 -51t21 -51.5t52 -21.5z" />
    <glyph glyph-name="zdotaccent" unicode="&#x17c;" horiz-adv-x="481" 
d="M14 0h454v116h-274l272 321v107h-438v-117h263l-277 -321v-106zM244 645q29 0 50.5 21t21.5 52q0 30 -21.5 51t-50.5 21q-31 0 -52 -21t-21 -51t21 -51.5t52 -21.5z" />
    <glyph glyph-name="Zcaron" unicode="&#x17d;" horiz-adv-x="571" 
d="M14 0h544v120h-370l360 518v107h-513v-120h340l-361 -518v-107zM217 842h136l120 144h-119l-68 -79l-66 79h-122z" />
    <glyph glyph-name="zcaron" unicode="&#x17e;" horiz-adv-x="481" 
d="M14 0h454v116h-274l272 321v107h-438v-117h263l-277 -321v-106zM175 640h136l120 144h-119l-68 -79l-66 79h-122z" />
    <glyph glyph-name="uni018F" unicode="&#x18f;" horiz-adv-x="814" 
d="M399 -12q81 0 148 29t116 81t75.5 121.5t26.5 150.5t-27.5 151.5t-78 123.5t-119.5 82.5t-153 29.5q-70 0 -132 -22t-108.5 -61.5t-70.5 -93.5l113 -55q29 51 80 79.5t117 28.5t118.5 -28t84.5 -77.5t38 -114.5h-571q-6 -33 -6 -68q0 -105 45 -185.5t124 -126t180 -45.5z
M403 112q-58 0 -103.5 24.5t-72.5 68t-30 99.5h427q-15 -90 -76 -141t-145 -51z" />
    <glyph glyph-name="florin" unicode="&#x192;" horiz-adv-x="570" 
d="M145 -12q92 0 149 51t57 154v123h120v114h-120v114q0 55 24.5 76.5t67.5 21.5q15 0 33 -3v113q-10 2 -24 3.5t-26 1.5q-93 0 -149.5 -51t-56.5 -154v-122h-121v-114h121v-115q0 -54 -24 -76t-68 -22q-16 0 -34 3v-113q10 -2 24.5 -3.5t26.5 -1.5z" />
    <glyph glyph-name="Ohorn" unicode="&#x1a0;" horiz-adv-x="878" 
d="M439 -12q83 0 154 29t124 81t82.5 122.5t29.5 152.5q0 89 -35 164t-95 127q50 8 80.5 40t30.5 91q0 27 -6.5 47.5t-16.5 41.5h-118q8 -19 14.5 -39.5t6.5 -37.5q0 -25 -9 -35.5t-20 -12.5t-19 -2h-203q-83 0 -154 -29t-123.5 -80.5t-82 -121.5t-29.5 -153
q0 -82 29.5 -152.5t82.5 -122.5t124 -81t153 -29zM439 112q-72 0 -129.5 34t-90.5 93t-33 134t33 133.5t90.5 92.5t129.5 34q73 0 130 -34t90 -92.5t33 -133.5t-33 -134t-90 -93t-130 -34z" />
    <glyph glyph-name="ohorn" unicode="&#x1a1;" horiz-adv-x="652" 
d="M327 -12q79 0 144 36.5t104 101t39 146.5q0 62 -23 114.5t-63 90.5q32 15 50 43.5t18 73.5q0 26 -6.5 47t-16.5 42h-113q8 -19 14.5 -39.5t6.5 -37.5q0 -25 -9 -35.5t-20 -12.5t-19 -2h-106q-81 0 -146 -37t-103.5 -101t-38.5 -146t38.5 -146t104 -101t145.5 -37z
M327 108q-44 0 -78.5 21t-54 58.5t-19.5 84.5t19.5 84t54 58.5t78.5 21.5t77.5 -21.5t53 -58.5t19.5 -84t-19.5 -84.5t-53 -58.5t-77.5 -21z" />
    <glyph glyph-name="Uhorn" unicode="&#x1af;" horiz-adv-x="718" 
d="M359 -12q86 0 152.5 36t104.5 99t38 143v383q65 0 106 32.5t41 101.5q0 27 -6.5 47.5t-17.5 41.5h-117q8 -19 14.5 -39.5t6.5 -37.5q0 -25 -9 -35.5t-20 -12.5t-19 -2h-115v-472q0 -47 -20.5 -83.5t-56 -57t-82.5 -20.5q-46 0 -82 20.5t-56.5 57t-20.5 83.5v472h-136
v-479q0 -80 38 -143t104.5 -99t152.5 -36z" />
    <glyph glyph-name="uhorn" unicode="&#x1b0;" horiz-adv-x="660" 
d="M255 -12q51 0 90.5 19.5t62.5 57.5v-65h124v452q54 6 87 37.5t33 92.5q0 26 -6.5 47t-16.5 42h-113q8 -19 14 -39.5t6 -37.5q0 -25 -8.5 -35.5t-20 -12.5t-19.5 -2h-87v-319q0 -54 -31 -85.5t-79 -31.5q-49 0 -79.5 31t-30.5 83v322h-131v-333q0 -100 54.5 -161.5
t150.5 -61.5z" />
    <glyph glyph-name="uni01C4" unicode="&#x1c4;" horiz-adv-x="1311" 
d="M957 842h136l120 144h-119l-68 -79l-66 79h-122zM72 0h243q118 0 205.5 48t135.5 132t48 193q0 110 -48 193.5t-135 131t-206 47.5h-243v-745zM754 0h543v120h-369l360 518v107h-513v-120h339l-360 -518v-107zM208 120v505h110q76 0 131.5 -31t86.5 -87.5t31 -133.5
t-30.5 -134t-86.5 -88t-132 -31h-110z" />
    <glyph glyph-name="uni01C5" unicode="&#x1c5;" horiz-adv-x="1221" 
d="M915 640h136l120 144h-120l-67 -79l-67 79h-122zM72 0h243q118 0 205.5 48t135.5 132t48 193q0 110 -48 193.5t-135 131t-206 47.5h-243v-745zM208 120v505h110q76 0 131.5 -31t86.5 -87.5t31 -133.5t-30.5 -134t-86.5 -88t-132 -31h-110zM754 0h453v116h-273l272 321
v107h-438v-117h263l-277 -321v-106z" />
    <glyph glyph-name="uni01C6" unicode="&#x1c6;" horiz-adv-x="1153" 
d="M847 640h136l120 144h-120l-67 -79l-67 79h-122zM314 -12q53 0 98 18.5t75 53.5v-60h124v745h-131v-256q-61 67 -167 67q-77 0 -139.5 -37.5t-98.5 -102t-36 -144.5t36 -144.5t98 -102t141 -37.5zM685 0h454v116h-273l272 321v107h-439v-117h264l-278 -321v-106zM328 108
q-44 0 -79 21t-54.5 58.5t-19.5 84.5t19.5 84t54.5 58.5t79 21.5t78.5 -21t54 -58t19.5 -85t-19.5 -85t-54 -58t-78.5 -21z" />
    <glyph glyph-name="uni01C7" unicode="&#x1c7;" horiz-adv-x="1156" 
d="M72 0h455v120h-319v625h-136v-745zM833 -12q80 0 137 32t87 87.5t30 125.5v512h-136v-512q0 -55 -31 -88t-86 -33q-50 0 -86 27.5t-50 77.5l-126 -34q19 -90 88.5 -142.5t172.5 -52.5z" />
    <glyph glyph-name="uni01C8" unicode="&#x1c8;" horiz-adv-x="795" 
d="M72 0h455v120h-319v625h-136v-745zM604 605h131v140h-131v-140zM529 -221q95 0 150.5 50t55.5 143v572h-131v-572q0 -39 -23.5 -58.5t-65.5 -19.5q-19 0 -36 3v-114q9 -2 23 -3t27 -1z" />
    <glyph glyph-name="uni01C9" unicode="&#x1c9;" horiz-adv-x="505" 
d="M61 0h131v745h-131v-745zM313 605h131v140h-131v-140zM238 -221q95 0 150.5 50t55.5 143v572h-131v-572q0 -39 -23.5 -58.5t-65.5 -19.5q-19 0 -36 3v-114q9 -2 23 -3t27 -1z" />
    <glyph glyph-name="uni01CA" unicode="&#x1ca;" horiz-adv-x="1133" 
d="M72 0h136v487l354 -487h107v745h-136v-478l-355 478h-106v-745zM780 0h43q74 0 128.5 29t84 81t29.5 121v514h-137v-519q0 -46 -28.5 -73.5t-76.5 -27.5h-43v-125z" />
    <glyph glyph-name="uni01CB" unicode="&#x1cb;" horiz-adv-x="993" 
d="M72 0h136v487l354 -487h107v745h-136v-478l-355 478h-106v-745zM802 605h131v140h-131v-140zM727 -221q95 0 150.5 50t55.5 143v572h-131v-572q0 -39 -23.5 -58.5t-65.5 -19.5q-19 0 -36 3v-114q9 -2 23 -3t27 -1z" />
    <glyph glyph-name="uni01CC" unicode="&#x1cc;" horiz-adv-x="845" 
d="M61 0h131v319q0 53 30.5 85t79.5 32t79.5 -31.5t30.5 -85.5v-319h131v350q0 61 -26 107.5t-72.5 72.5t-106.5 26q-51 0 -91.5 -20t-62.5 -59v67h-123v-544zM654 605h131v140h-131v-140zM579 -221q95 0 150.5 50t55.5 143v572h-131v-572q0 -39 -23.5 -58.5t-65.5 -19.5
q-19 0 -36 3v-114q9 -2 23 -3t27 -1z" />
    <glyph glyph-name="Gcaron" unicode="&#x1e6;" horiz-adv-x="808" 
d="M425 -12q66 0 128 22.5t111.5 67t78.5 110t29 152.5v75h-350v-115h214v-3q0 -57 -29 -98.5t-77 -64t-105 -22.5q-70 0 -124 33t-84.5 91.5t-30.5 136.5t30 136.5t83 91t123 32.5q71 0 121 -36t72 -94l121 58q-19 53 -63 97.5t-107.5 71.5t-143.5 27t-148 -28.5t-118 -80
t-78 -122t-28 -153.5t28.5 -153.5t79.5 -122.5t119 -80.5t148 -28.5zM336 842h136l120 144h-119l-68 -79l-66 79h-122z" />
    <glyph glyph-name="gcaron" unicode="&#x1e7;" horiz-adv-x="652" 
d="M325 -220q78 0 138 32t94 88t34 127v517h-124v-63q-62 75 -167 75q-75 0 -134 -34.5t-93 -94.5t-34 -137q0 -76 34 -137t94 -96t136 -35q99 0 157 64v-59q0 -60 -38 -93.5t-97 -33.5q-52 0 -87.5 23.5t-47.5 61.5l-122 -46q26 -72 95.5 -115.5t161.5 -43.5zM319 143
q-63 0 -103.5 41.5t-40.5 104.5q0 42 18.5 75.5t51.5 52.5t74 19q62 0 101.5 -41.5t39.5 -105.5t-39.5 -105t-101.5 -41zM257 640h136l120 144h-119l-68 -79l-66 79h-122z" />
    <glyph glyph-name="uni01EA" unicode="&#x1ea;" horiz-adv-x="878" 
d="M439 -12q83 0 154 29t124 81t82.5 122.5t29.5 152.5q0 83 -29.5 153t-82.5 121.5t-124 80.5t-154 29t-154 -29t-123.5 -80.5t-82 -121.5t-29.5 -153q0 -82 29.5 -152.5t82.5 -122.5t124 -81t153 -29zM439 112q-72 0 -129.5 34t-90.5 93t-33 134t33 133.5t90.5 92.5
t129.5 34q73 0 130 -34t90 -92.5t33 -133.5t-33 -134t-90 -93t-130 -34zM498 -202q33 0 68 11t72 40l-40 68q-20 -12 -42 -20t-45 -8q-29 0 -44.5 13t-15.5 33q0 21 20.5 41.5t75.5 35.5v33h-40q-43 -5 -78.5 -23.5t-56 -47t-20.5 -65.5q0 -52 42 -81.5t104 -29.5z" />
    <glyph glyph-name="uni01EB" unicode="&#x1eb;" horiz-adv-x="652" 
d="M327 -12q79 0 144 36.5t104 101t39 146.5t-38.5 146t-103.5 101t-145 37q-81 0 -146 -37t-103.5 -101t-38.5 -146t38.5 -146t104 -101t145.5 -37zM327 108q-44 0 -78.5 21t-54 58.5t-19.5 84.5t19.5 84t54 58.5t78.5 21.5t77.5 -21.5t53 -58.5t19.5 -84t-19.5 -84.5
t-53 -58.5t-77.5 -21zM310 -206q33 0 68 11t72 40l-40 68q-20 -12 -42 -20t-45 -8q-29 0 -44.5 13t-15.5 33q0 21 20.5 41.5t75.5 35.5v33h-40q-43 -5 -78.5 -23.5t-56 -47t-20.5 -65.5q0 -52 42 -81.5t104 -29.5z" />
    <glyph glyph-name="Aringacute" unicode="&#x1fa;" horiz-adv-x="712" 
d="M11 0h147l54 160h288l53 -160h148l-257 745h-176zM251 280l105 314l105 -314h-210zM301 1064h114l75 111h-139zM356 785q36 0 64.5 16.5t45.5 45t17 63.5q0 36 -17 64.5t-45.5 45t-64.5 16.5q-55 0 -91.5 -36.5t-36.5 -89.5q0 -35 17 -63.5t46 -45t65 -16.5zM356 856
q-24 0 -39.5 16t-15.5 38q0 23 15.5 39t39.5 16q23 0 38 -16t15 -39q0 -22 -15 -38t-38 -16z" />
    <glyph glyph-name="aringacute" unicode="&#x1fb;" horiz-adv-x="580" 
d="M226 -12q106 0 170 70v-58h124v362q0 57 -29 101t-79.5 68.5t-117.5 24.5q-82 0 -146 -39t-88 -103l107 -52q15 37 47 59.5t75 22.5q45 0 72.5 -23.5t27.5 -58.5v-18l-162 -26q-96 -16 -142 -61t-46 -113q0 -72 51 -114t136 -42zM175 149q0 57 77 72l137 23v-22
q0 -56 -38.5 -95t-100.5 -39q-33 0 -54 16.5t-21 44.5zM236 862h114l75 111h-139zM291 583q36 0 64.5 16.5t45.5 45t17 63.5q0 36 -17 64.5t-45.5 45t-64.5 16.5q-55 0 -91.5 -36.5t-36.5 -89.5q0 -35 17 -63.5t46 -45t65 -16.5zM291 654q-24 0 -39.5 16t-15.5 38
q0 23 15.5 39t39.5 16q23 0 38 -16t15 -39q0 -22 -15 -38t-38 -16z" />
    <glyph glyph-name="AEacute" unicode="&#x1fc;" horiz-adv-x="991" 
d="M11 0h147l54 160h256v-160h495l1 120h-360v194h340v120h-340v191h360v120h-696zM251 280l116 345h101v-345h-217zM439 842h114l96 144h-147z" />
    <glyph glyph-name="aeacute" unicode="&#x1fd;" horiz-adv-x="967" 
d="M226 -12q106 0 170 68v-56h111v56q35 -34 81 -51t100 -17q49 0 92.5 17t77 47t49.5 69l-106 52q-19 -31 -50.5 -50.5t-75.5 -19.5q-60 0 -100 35.5t-45 96.5h392q6 23 6 55q0 73 -31 133t-90 96.5t-143 36.5q-56 0 -104 -20t-83 -55q-30 35 -77 55t-106 20
q-82 0 -146 -39t-88 -103l107 -52q15 37 47 59.5t75 22.5q45 0 72.5 -23.5t27.5 -58.5v-18l-162 -26q-96 -16 -142 -61t-46 -113q0 -72 51 -114t136 -42zM533 335q10 54 46 83.5t85 29.5q52 0 86.5 -31.5t38.5 -81.5h-256zM250 88q-33 0 -54 16.5t-21 44.5q0 57 77 72
l137 23v-22q0 -56 -38.5 -95t-100.5 -39zM427 640h114l96 144h-147z" />
    <glyph glyph-name="Oslashacute" unicode="&#x1fe;" horiz-adv-x="878" 
d="M60 0h144l33 41q44 -26 95 -39.5t107 -13.5q83 0 154 29t124 81t82.5 122.5t29.5 152.5q0 78 -27 145t-74 118l90 109h-144l-33 -40q-44 25 -95 38.5t-107 13.5q-83 0 -154 -29t-123.5 -80.5t-82 -121.5t-29.5 -153q0 -78 26.5 -145t74.5 -118zM186 373q0 75 33 133.5
t90.5 92.5t129.5 34q65 0 119 -28l-323 -392q-23 32 -36 73t-13 87zM439 112q-65 0 -119 28l323 392q23 -32 36 -72.5t13 -86.5q0 -75 -33 -134t-90 -93t-130 -34zM382 842h114l96 144h-147z" />
    <glyph glyph-name="oslashacute" unicode="&#x1ff;" horiz-adv-x="652" 
d="M36 0h133l18 22q64 -34 140 -34q79 0 144 36.5t104 101t39 146.5q0 55 -18 102.5t-50 84.5l70 85h-133l-18 -22q-63 34 -138 34q-80 0 -145.5 -37t-104 -101t-38.5 -146q0 -55 18 -102t50 -84zM175 272q0 47 19.5 84t54 58.5t78.5 21.5q31 0 58 -11l-192 -234
q-18 36 -18 81zM327 108q-32 0 -60 12l192 233q18 -37 18 -81q0 -47 -19.5 -84.5t-53 -58.5t-77.5 -21zM270 640h114l96 144h-147z" />
    <glyph glyph-name="uni0200" unicode="&#x200;" horiz-adv-x="712" 
d="M11 0h147l54 160h288l53 -160h148l-257 745h-176zM251 280l105 314l105 -314h-210zM392 842h114l-63 144h-147zM205 842h115l-63 144h-147z" />
    <glyph glyph-name="uni0201" unicode="&#x201;" horiz-adv-x="580" 
d="M226 -12q106 0 170 70v-58h124v362q0 57 -29 101t-79.5 68.5t-117.5 24.5q-82 0 -146 -39t-88 -103l107 -52q15 37 47 59.5t75 22.5q45 0 72.5 -23.5t27.5 -58.5v-18l-162 -26q-96 -16 -142 -61t-46 -113q0 -72 51 -114t136 -42zM175 149q0 57 77 72l137 23v-22
q0 -56 -38.5 -95t-100.5 -39q-33 0 -54 16.5t-21 44.5zM327 640h114l-63 144h-147zM140 640h115l-63 144h-147z" />
    <glyph glyph-name="uni0202" unicode="&#x202;" horiz-adv-x="712" 
d="M11 0h147l54 160h288l53 -160h148l-257 745h-176zM251 280l105 314l105 -314h-210zM195 842h103q0 23 16.5 38.5t41.5 15.5t41.5 -15.5t16.5 -38.5h103q0 39 -21.5 72.5t-58 53.5t-81.5 20q-44 0 -80.5 -20t-58.5 -53.5t-22 -72.5z" />
    <glyph glyph-name="uni0203" unicode="&#x203;" horiz-adv-x="580" 
d="M226 -12q106 0 170 70v-58h124v362q0 57 -29 101t-79.5 68.5t-117.5 24.5q-82 0 -146 -39t-88 -103l107 -52q15 37 47 59.5t75 22.5q45 0 72.5 -23.5t27.5 -58.5v-18l-162 -26q-96 -16 -142 -61t-46 -113q0 -72 51 -114t136 -42zM175 149q0 57 77 72l137 23v-22
q0 -56 -38.5 -95t-100.5 -39q-33 0 -54 16.5t-21 44.5zM130 640h103q0 23 16.5 38.5t41.5 15.5t41.5 -15.5t16.5 -38.5h103q0 39 -21.5 72.5t-58 53.5t-81.5 20q-44 0 -80.5 -20t-58.5 -53.5t-22 -72.5z" />
    <glyph glyph-name="uni0204" unicode="&#x204;" horiz-adv-x="595" 
d="M72 0h495v120h-359v194h339v120h-339v191h359v120h-495v-745zM356 842h114l-63 144h-147zM169 842h115l-63 144h-147z" />
    <glyph glyph-name="uni0205" unicode="&#x205;" horiz-adv-x="612" 
d="M319 -12q83 0 145.5 37.5t87.5 95.5l-106 52q-18 -31 -49.5 -50.5t-76.5 -19.5q-59 0 -99 36t-46 96h392q4 11 5.5 25.5t1.5 29.5q0 73 -31 133t-90 96.5t-144 36.5q-76 0 -137.5 -37t-97 -100.5t-35.5 -145.5q0 -79 35 -144t98 -103t147 -38zM309 448q52 0 86.5 -31.5
t38.5 -81.5h-256q11 54 46.5 83.5t84.5 29.5zM343 640h114l-63 144h-147zM156 640h115l-63 144h-147z" />
    <glyph glyph-name="uni0206" unicode="&#x206;" horiz-adv-x="595" 
d="M72 0h495v120h-359v194h339v120h-339v191h359v120h-495v-745zM159 842h103q0 23 16.5 38.5t41.5 15.5t41.5 -15.5t16.5 -38.5h103q0 39 -21.5 72.5t-58 53.5t-81.5 20q-44 0 -80.5 -20t-58.5 -53.5t-22 -72.5z" />
    <glyph glyph-name="uni0207" unicode="&#x207;" horiz-adv-x="612" 
d="M319 -12q83 0 145.5 37.5t87.5 95.5l-106 52q-18 -31 -49.5 -50.5t-76.5 -19.5q-59 0 -99 36t-46 96h392q4 11 5.5 25.5t1.5 29.5q0 73 -31 133t-90 96.5t-144 36.5q-76 0 -137.5 -37t-97 -100.5t-35.5 -145.5q0 -79 35 -144t98 -103t147 -38zM309 448q52 0 86.5 -31.5
t38.5 -81.5h-256q11 54 46.5 83.5t84.5 29.5zM146 640h103q0 23 16.5 38.5t41.5 15.5t41.5 -15.5t16.5 -38.5h103q0 39 -21.5 72.5t-58 53.5t-81.5 20q-44 0 -80.5 -20t-58.5 -53.5t-22 -72.5z" />
    <glyph glyph-name="uni0208" unicode="&#x208;" horiz-adv-x="279" 
d="M72 0h136v745h-136v-745zM176 842h114l-63 144h-147zM-11 842h115l-63 144h-147z" />
    <glyph glyph-name="uni0209" unicode="&#x209;" horiz-adv-x="228" 
d="M49 0h131v544h-131v-544zM150 640h114l-63 144h-147zM-37 640h115l-63 144h-147z" />
    <glyph glyph-name="uni020A" unicode="&#x20a;" horiz-adv-x="279" 
d="M72 0h136v745h-136v-745zM-21 842h103q0 23 16.5 38.5t41.5 15.5t41.5 -15.5t16.5 -38.5h103q0 39 -21.5 72.5t-58 53.5t-81.5 20q-44 0 -80.5 -20t-58.5 -53.5t-22 -72.5z" />
    <glyph glyph-name="uni020B" unicode="&#x20b;" horiz-adv-x="228" 
d="M49 0h131v544h-131v-544zM-47 640h103q0 23 16.5 38.5t41.5 15.5t41.5 -15.5t16.5 -38.5h103q0 39 -21.5 72.5t-58 53.5t-81.5 20q-44 0 -80.5 -20t-58.5 -53.5t-22 -72.5z" />
    <glyph glyph-name="uni020C" unicode="&#x20c;" horiz-adv-x="878" 
d="M439 -12q83 0 154 29t124 81t82.5 122.5t29.5 152.5q0 83 -29.5 153t-82.5 121.5t-124 80.5t-154 29t-154 -29t-123.5 -80.5t-82 -121.5t-29.5 -153q0 -82 29.5 -152.5t82.5 -122.5t124 -81t153 -29zM439 112q-72 0 -129.5 34t-90.5 93t-33 134t33 133.5t90.5 92.5
t129.5 34q73 0 130 -34t90 -92.5t33 -133.5t-33 -134t-90 -93t-130 -34zM475 842h114l-63 144h-147zM288 842h115l-63 144h-147z" />
    <glyph glyph-name="uni020D" unicode="&#x20d;" horiz-adv-x="652" 
d="M327 -12q79 0 144 36.5t104 101t39 146.5t-38.5 146t-103.5 101t-145 37q-81 0 -146 -37t-103.5 -101t-38.5 -146t38.5 -146t104 -101t145.5 -37zM327 108q-44 0 -78.5 21t-54 58.5t-19.5 84.5t19.5 84t54 58.5t78.5 21.5t77.5 -21.5t53 -58.5t19.5 -84t-19.5 -84.5
t-53 -58.5t-77.5 -21zM363 640h114l-63 144h-147zM176 640h115l-63 144h-147z" />
    <glyph glyph-name="uni020E" unicode="&#x20e;" horiz-adv-x="878" 
d="M439 -12q83 0 154 29t124 81t82.5 122.5t29.5 152.5q0 83 -29.5 153t-82.5 121.5t-124 80.5t-154 29t-154 -29t-123.5 -80.5t-82 -121.5t-29.5 -153q0 -82 29.5 -152.5t82.5 -122.5t124 -81t153 -29zM439 112q-72 0 -129.5 34t-90.5 93t-33 134t33 133.5t90.5 92.5
t129.5 34q73 0 130 -34t90 -92.5t33 -133.5t-33 -134t-90 -93t-130 -34zM278 842h103q0 23 16.5 38.5t41.5 15.5t41.5 -15.5t16.5 -38.5h103q0 39 -21.5 72.5t-58 53.5t-81.5 20q-44 0 -80.5 -20t-58.5 -53.5t-22 -72.5z" />
    <glyph glyph-name="uni020F" unicode="&#x20f;" horiz-adv-x="652" 
d="M327 -12q79 0 144 36.5t104 101t39 146.5t-38.5 146t-103.5 101t-145 37q-81 0 -146 -37t-103.5 -101t-38.5 -146t38.5 -146t104 -101t145.5 -37zM327 108q-44 0 -78.5 21t-54 58.5t-19.5 84.5t19.5 84t54 58.5t78.5 21.5t77.5 -21.5t53 -58.5t19.5 -84t-19.5 -84.5
t-53 -58.5t-77.5 -21zM166 640h103q0 23 16.5 38.5t41.5 15.5t41.5 -15.5t16.5 -38.5h103q0 39 -21.5 72.5t-58 53.5t-81.5 20q-44 0 -80.5 -20t-58.5 -53.5t-22 -72.5z" />
    <glyph glyph-name="uni0210" unicode="&#x210;" horiz-adv-x="661" 
d="M72 0h136v275h128l154 -275h154l-171 299q62 26 98.5 80t36.5 131q0 76 -33 128t-91.5 79.5t-134.5 27.5h-277v-745zM208 395v230h143q55 0 88 -31t33 -84q0 -52 -33 -83.5t-88 -31.5h-143zM366 842h114l-63 144h-147zM179 842h115l-63 144h-147z" />
    <glyph glyph-name="uni0211" unicode="&#x211;" horiz-adv-x="374" 
d="M61 0h131v303q0 62 34.5 96.5t89.5 34.5h47v116h-32q-50 0 -88 -18t-59 -65v77h-123v-544zM248 640h114l-63 144h-147zM61 640h115l-63 144h-147z" />
    <glyph glyph-name="uni0212" unicode="&#x212;" horiz-adv-x="661" 
d="M72 0h136v275h128l154 -275h154l-171 299q62 26 98.5 80t36.5 131q0 76 -33 128t-91.5 79.5t-134.5 27.5h-277v-745zM208 395v230h143q55 0 88 -31t33 -84q0 -52 -33 -83.5t-88 -31.5h-143zM169 842h103q0 23 16.5 38.5t41.5 15.5t41.5 -15.5t16.5 -38.5h103
q0 39 -21.5 72.5t-58 53.5t-81.5 20q-44 0 -80.5 -20t-58.5 -53.5t-22 -72.5z" />
    <glyph glyph-name="uni0213" unicode="&#x213;" horiz-adv-x="374" 
d="M61 0h131v303q0 62 34.5 96.5t89.5 34.5h47v116h-32q-50 0 -88 -18t-59 -65v77h-123v-544zM51 640h103q0 23 16.5 38.5t41.5 15.5t41.5 -15.5t16.5 -38.5h103q0 39 -21.5 72.5t-58 53.5t-81.5 20q-44 0 -80.5 -20t-58.5 -53.5t-22 -72.5z" />
    <glyph glyph-name="uni0214" unicode="&#x214;" horiz-adv-x="718" 
d="M359 -12q86 0 152.5 36t104.5 99t38 143v479h-136v-472q0 -47 -20.5 -83.5t-56 -57t-82.5 -20.5q-46 0 -82 20.5t-56.5 57t-20.5 83.5v472h-136v-479q0 -80 38 -143t104.5 -99t152.5 -36zM395 842h114l-63 144h-147zM208 842h115l-63 144h-147z" />
    <glyph glyph-name="uni0215" unicode="&#x215;" 
d="M255 -12q51 0 90.5 19.5t62.5 57.5v-65h124v544h-131v-319q0 -54 -31 -85.5t-79 -31.5q-49 0 -79.5 31t-30.5 83v322h-131v-333q0 -100 54.5 -161.5t150.5 -61.5zM333 640h114l-63 144h-147zM146 640h115l-63 144h-147z" />
    <glyph glyph-name="uni0216" unicode="&#x216;" horiz-adv-x="718" 
d="M359 -12q86 0 152.5 36t104.5 99t38 143v479h-136v-472q0 -47 -20.5 -83.5t-56 -57t-82.5 -20.5q-46 0 -82 20.5t-56.5 57t-20.5 83.5v472h-136v-479q0 -80 38 -143t104.5 -99t152.5 -36zM198 842h103q0 23 16.5 38.5t41.5 15.5t41.5 -15.5t16.5 -38.5h103
q0 39 -21.5 72.5t-58 53.5t-81.5 20q-44 0 -80.5 -20t-58.5 -53.5t-22 -72.5z" />
    <glyph glyph-name="uni0217" unicode="&#x217;" 
d="M255 -12q51 0 90.5 19.5t62.5 57.5v-65h124v544h-131v-319q0 -54 -31 -85.5t-79 -31.5q-49 0 -79.5 31t-30.5 83v322h-131v-333q0 -100 54.5 -161.5t150.5 -61.5zM136 640h103q0 23 16.5 38.5t41.5 15.5t41.5 -15.5t16.5 -38.5h103q0 39 -21.5 72.5t-58 53.5t-81.5 20
q-44 0 -80.5 -20t-58.5 -53.5t-22 -72.5z" />
    <glyph glyph-name="uni0218" unicode="&#x218;" horiz-adv-x="647" 
d="M338 -12q77 0 135 28t91 77t33 113q0 149 -178 206l-137 43q-40 13 -60.5 36.5t-20.5 54.5q0 41 31.5 66.5t83.5 25.5q58 0 102 -30.5t66 -86.5l112 50q-30 84 -104.5 135t-175.5 51q-73 0 -129.5 -27.5t-88 -76.5t-31.5 -113q0 -73 44 -126.5t131 -81.5l143 -46
q39 -13 58.5 -34t19.5 -54q0 -41 -32.5 -66t-85.5 -25q-64 0 -115 36.5t-78 100.5l-113 -49q20 -62 63.5 -108.5t104 -72.5t131.5 -26zM248 -376q152 32 152 210v86h-132v-140h61q-12 -75 -81 -92v-64z" />
    <glyph glyph-name="uni0219" unicode="&#x219;" horiz-adv-x="514" 
d="M268 -12q62 0 108 21t72 58.5t26 86.5q0 57 -36 98t-104 60l-87 26q-28 8 -46 21t-18 36q0 24 19 39t52 15q41 0 74.5 -22t46.5 -59l100 47q-25 66 -84 103.5t-136 37.5q-59 0 -104.5 -21t-71 -58.5t-25.5 -87.5q0 -56 35.5 -97t104.5 -61l89 -25q26 -7 44.5 -20.5
t18.5 -36.5q0 -27 -21.5 -42.5t-56.5 -15.5q-46 0 -83 26t-59 72l-98 -47q24 -70 88.5 -112t151.5 -42zM182 -376q152 32 152 210v86h-132v-140h61q-12 -75 -81 -92v-64z" />
    <glyph glyph-name="uni021A" unicode="&#x21a;" horiz-adv-x="542" 
d="M204 0h137v625h190v120h-520v-120h193v-625zM195 -376q152 32 152 210v86h-132v-140h61q-12 -75 -81 -92v-64z" />
    <glyph glyph-name="uni021B" unicode="&#x21b;" horiz-adv-x="413" 
d="M309 -6q33 0 65 5v113q-19 -3 -35 -3q-48 0 -70 22t-22 63v233h125v117h-125v124h-131v-42q0 -40 -22 -61t-62 -21h-10v-117h94v-240q0 -91 50.5 -142t142.5 -51zM226 -376q152 32 152 210v86h-132v-140h61q-12 -75 -81 -92v-64z" />
    <glyph glyph-name="uni022A" unicode="&#x22a;" horiz-adv-x="878" 
d="M439 -12q83 0 154 29t124 81t82.5 122.5t29.5 152.5q0 83 -29.5 153t-82.5 121.5t-124 80.5t-154 29t-154 -29t-123.5 -80.5t-82 -121.5t-29.5 -153q0 -82 29.5 -152.5t82.5 -122.5t124 -81t153 -29zM439 112q-72 0 -129.5 34t-90.5 93t-33 134t33 133.5t90.5 92.5
t129.5 34q73 0 130 -34t90 -92.5t33 -133.5t-33 -134t-90 -93t-130 -34zM301 1022h278v97h-278v-97zM343 847q29 0 50.5 21t21.5 52q0 30 -21.5 51t-50.5 21q-31 0 -52 -21t-21 -51t21 -51.5t52 -21.5zM538 847q29 0 50.5 21t21.5 52q0 30 -21.5 51t-50.5 21q-31 0 -52 -21
t-21 -51t21 -51.5t52 -21.5z" />
    <glyph glyph-name="uni022B" unicode="&#x22b;" horiz-adv-x="652" 
d="M327 -12q79 0 144 36.5t104 101t39 146.5t-38.5 146t-103.5 101t-145 37q-81 0 -146 -37t-103.5 -101t-38.5 -146t38.5 -146t104 -101t145.5 -37zM327 108q-44 0 -78.5 21t-54 58.5t-19.5 84.5t19.5 84t54 58.5t78.5 21.5t77.5 -21.5t53 -58.5t19.5 -84t-19.5 -84.5
t-53 -58.5t-77.5 -21zM188 820h278v97h-278v-97zM230 645q29 0 50.5 21t21.5 52q0 30 -21.5 51t-50.5 21q-31 0 -52 -21t-21 -51t21 -51.5t52 -21.5zM425 645q29 0 50.5 21t21.5 52q0 30 -21.5 51t-50.5 21q-31 0 -52 -21t-21 -51t21 -51.5t52 -21.5z" />
    <glyph glyph-name="uni022C" unicode="&#x22c;" horiz-adv-x="878" 
d="M439 -12q83 0 154 29t124 81t82.5 122.5t29.5 152.5q0 83 -29.5 153t-82.5 121.5t-124 80.5t-154 29t-154 -29t-123.5 -80.5t-82 -121.5t-29.5 -153q0 -82 29.5 -152.5t82.5 -122.5t124 -81t153 -29zM439 112q-72 0 -129.5 34t-90.5 93t-33 134t33 133.5t90.5 92.5
t129.5 34q73 0 130 -34t90 -92.5t33 -133.5t-33 -134t-90 -93t-130 -34zM300 1037h279v97h-279v-97zM512 854q42 0 65.5 30.5t23.5 101.5h-84q0 -17 -7.5 -30t-22.5 -13q-18 0 -31.5 12t-31.5 24t-49 12q-40 0 -68 -30.5t-28 -102.5h83q2 19 9 31.5t23 12.5q18 0 32.5 -12
t33.5 -24t52 -12z" />
    <glyph glyph-name="uni022D" unicode="&#x22d;" horiz-adv-x="652" 
d="M327 -12q79 0 144 36.5t104 101t39 146.5t-38.5 146t-103.5 101t-145 37q-81 0 -146 -37t-103.5 -101t-38.5 -146t38.5 -146t104 -101t145.5 -37zM327 108q-44 0 -78.5 21t-54 58.5t-19.5 84.5t19.5 84t54 58.5t78.5 21.5t77.5 -21.5t53 -58.5t19.5 -84t-19.5 -84.5
t-53 -58.5t-77.5 -21zM188 835h279v97h-279v-97zM400 652q42 0 65.5 30.5t23.5 101.5h-84q0 -17 -7.5 -30t-22.5 -13q-18 0 -31.5 12t-31.5 24t-49 12q-40 0 -68 -30.5t-28 -102.5h83q2 19 9 31.5t23 12.5q18 0 32.5 -12t33.5 -24t52 -12z" />
    <glyph glyph-name="uni0230" unicode="&#x230;" horiz-adv-x="878" 
d="M439 -12q83 0 154 29t124 81t82.5 122.5t29.5 152.5q0 83 -29.5 153t-82.5 121.5t-124 80.5t-154 29t-154 -29t-123.5 -80.5t-82 -121.5t-29.5 -153q0 -82 29.5 -152.5t82.5 -122.5t124 -81t153 -29zM439 112q-72 0 -129.5 34t-90.5 93t-33 134t33 133.5t90.5 92.5
t129.5 34q73 0 130 -34t90 -92.5t33 -133.5t-33 -134t-90 -93t-130 -34zM300 1022h278v97h-278v-97zM440 847q29 0 50.5 21t21.5 52q0 30 -21.5 51t-50.5 21q-31 0 -52 -21t-21 -51t21 -51.5t52 -21.5z" />
    <glyph glyph-name="uni0231" unicode="&#x231;" horiz-adv-x="652" 
d="M327 -12q79 0 144 36.5t104 101t39 146.5t-38.5 146t-103.5 101t-145 37q-81 0 -146 -37t-103.5 -101t-38.5 -146t38.5 -146t104 -101t145.5 -37zM327 108q-44 0 -78.5 21t-54 58.5t-19.5 84.5t19.5 84t54 58.5t78.5 21.5t77.5 -21.5t53 -58.5t19.5 -84t-19.5 -84.5
t-53 -58.5t-77.5 -21zM188 820h278v97h-278v-97zM328 645q29 0 50.5 21t21.5 52q0 30 -21.5 51t-50.5 21q-31 0 -52 -21t-21 -51t21 -51.5t52 -21.5z" />
    <glyph glyph-name="uni0232" unicode="&#x232;" horiz-adv-x="660" 
d="M262 0h137v331l250 414h-155l-164 -277l-164 277h-155l251 -415v-330zM190 861h281v97h-281v-97z" />
    <glyph glyph-name="uni0233" unicode="&#x233;" horiz-adv-x="586" 
d="M127 -221q77 0 128.5 43.5t82.5 122.5l237 599h-142l-140 -375l-141 375h-141l215 -544l-12 -29q-16 -34 -36.5 -55t-65.5 -21q-16 0 -34 2.5t-32 6.5v-110q17 -8 38 -11.5t43 -3.5zM153 659h281v97h-281v-97z" />
    <glyph glyph-name="uni0237" unicode="&#x237;" horiz-adv-x="252" 
d="M-14 -221q95 0 150.5 50t55.5 143v572h-131v-572q0 -39 -23.5 -58.5t-65.5 -19.5q-19 0 -36 3v-114q9 -2 23 -3t27 -1z" />
    <glyph glyph-name="uni0259" unicode="&#x259;" horiz-adv-x="612" 
d="M303 -12q77 0 138.5 37t97 101t35.5 145q0 80 -35 144.5t-98.5 102.5t-147.5 38q-83 0 -145.5 -37.5t-87.5 -96.5l106 -51q18 32 50 51t76 19q59 0 99 -36t46 -96h-392q-4 -11 -5 -26t-1 -29q0 -73 31 -133.5t90 -96.5t143 -36zM303 96q-52 0 -86.5 31.5t-38.5 81.5h256
q-11 -55 -46.5 -84t-84.5 -29z" />
    <glyph glyph-name="uni02BB" unicode="&#x2bb;" horiz-adv-x="398" 
d="M275 757q-152 -32 -152 -210v-86h132v140h-61q12 75 81 92v64z" />
    <glyph glyph-name="uni02BC" unicode="&#x2bc;" horiz-adv-x="363" 
d="M139 462h85l16 283h-118z" />
    <glyph glyph-name="uni02BE" unicode="&#x2be;" horiz-adv-x="374" 
d="M123 583q36 0 65 16.5t46 45t17 63.5q0 36 -17 64.5t-46 45t-65 16.5v-71q24 0 39.5 -16t15.5 -39q0 -22 -15.5 -38t-39.5 -16v-71z" />
    <glyph glyph-name="uni02BF" unicode="&#x2bf;" horiz-adv-x="374" 
d="M251 583v71q-24 0 -39.5 16t-15.5 38q0 23 15.5 39t39.5 16v71q-55 0 -91.5 -36.5t-36.5 -89.5q0 -35 17 -63.5t46 -45t65 -16.5z" />
    <glyph glyph-name="circumflex" unicode="&#x2c6;" horiz-adv-x="621" 
d="M123 640h122l66 79l68 -79h119l-120 144h-136z" />
    <glyph glyph-name="caron" unicode="&#x2c7;" horiz-adv-x="621" 
d="M242 640h136l120 144h-119l-68 -79l-66 79h-122z" />
    <glyph glyph-name="uni02C8" unicode="&#x2c8;" horiz-adv-x="363" 
d="M123 550h117v195h-117v-195z" />
    <glyph glyph-name="uni02C9" unicode="&#x2c9;" horiz-adv-x="526" 
d="M123 659h281v97h-281v-97z" />
    <glyph glyph-name="uni02CA" unicode="&#x2ca;" horiz-adv-x="455" 
d="M123 640h114l96 144h-147z" />
    <glyph glyph-name="uni02CB" unicode="&#x2cb;" horiz-adv-x="455" 
d="M218 640h115l-63 144h-147z" />
    <glyph glyph-name="uni02CC" unicode="&#x2cc;" horiz-adv-x="363" 
d="M123 -195h117v195h-117v-195z" />
    <glyph glyph-name="breve" unicode="&#x2d8;" horiz-adv-x="567" 
d="M284 640q45 0 81.5 20t58 53.5t21.5 72.5h-103q0 -23 -16.5 -38.5t-41.5 -15.5t-41.5 15.5t-16.5 38.5h-103q0 -39 22 -72.5t58.5 -53.5t80.5 -20z" />
    <glyph glyph-name="dotaccent" unicode="&#x2d9;" horiz-adv-x="390" 
d="M196 645q29 0 50.5 21t21.5 52q0 30 -21.5 51t-50.5 21q-31 0 -52 -21t-21 -51t21 -51.5t52 -21.5z" />
    <glyph glyph-name="ring" unicode="&#x2da;" horiz-adv-x="500" 
d="M251 583q36 0 64.5 16.5t45.5 45t17 63.5q0 36 -17 64.5t-45.5 45t-64.5 16.5q-55 0 -91.5 -36.5t-36.5 -89.5q0 -35 17 -63.5t46 -45t65 -16.5zM251 654q-24 0 -39.5 16t-15.5 38q0 23 15.5 39t39.5 16q23 0 38 -16t15 -39q0 -22 -15 -38t-38 -16z" />
    <glyph glyph-name="ogonek" unicode="&#x2db;" horiz-adv-x="532" 
d="M269 -216q33 0 68 11t72 40l-40 68q-20 -12 -42 -20t-45 -8q-29 0 -44.5 13t-15.5 33q0 21 20.5 41.5t75.5 35.5v33h-40q-43 -5 -78.5 -23.5t-56 -47t-20.5 -65.5q0 -52 42 -81.5t104 -29.5z" />
    <glyph glyph-name="tilde" unicode="&#x2dc;" horiz-adv-x="567" 
d="M356 622q42 0 65.5 30.5t23.5 101.5h-84q0 -17 -7.5 -30t-22.5 -13q-18 0 -31.5 12t-31.5 24t-49 12q-40 0 -68 -30.5t-28 -102.5h83q2 19 9 31.5t23 12.5q18 0 32.5 -12t33.5 -24t52 -12z" />
    <glyph glyph-name="hungarumlaut" unicode="&#x2dd;" horiz-adv-x="642" 
d="M123 640h114l96 144h-147zM309 640h115l95 144h-147z" />
    <glyph glyph-name="gravecomb" unicode="&#x300;" horiz-adv-x="0" 
d="M218 640h115l-63 144h-147z" />
    <glyph glyph-name="acutecomb" unicode="&#x301;" horiz-adv-x="0" 
d="M123 640h114l96 144h-147z" />
    <glyph glyph-name="uni0302" unicode="&#x302;" horiz-adv-x="0" 
d="M123 640h122l66 79l68 -79h119l-120 144h-136z" />
    <glyph glyph-name="tildecomb" unicode="&#x303;" horiz-adv-x="0" 
d="M356 622q42 0 65.5 30.5t23.5 101.5h-84q0 -17 -7.5 -30t-22.5 -13q-18 0 -31.5 12t-31.5 24t-49 12q-40 0 -68 -30.5t-28 -102.5h83q2 19 9 31.5t23 12.5q18 0 32.5 -12t33.5 -24t52 -12z" />
    <glyph glyph-name="uni0304" unicode="&#x304;" horiz-adv-x="0" 
d="M123 659h281v97h-281v-97z" />
    <glyph glyph-name="uni0306" unicode="&#x306;" horiz-adv-x="0" 
d="M284 640q45 0 81.5 20t58 53.5t21.5 72.5h-103q0 -23 -16.5 -38.5t-41.5 -15.5t-41.5 15.5t-16.5 38.5h-103q0 -39 22 -72.5t58.5 -53.5t80.5 -20z" />
    <glyph glyph-name="uni0307" unicode="&#x307;" horiz-adv-x="0" 
d="M196 645q29 0 50.5 21t21.5 52q0 30 -21.5 51t-50.5 21q-31 0 -52 -21t-21 -51t21 -51.5t52 -21.5z" />
    <glyph glyph-name="uni0308" unicode="&#x308;" horiz-adv-x="0" 
d="M196 645q29 0 50.5 21t21.5 52q0 30 -21.5 51t-50.5 21q-31 0 -52 -21t-21 -51t21 -51.5t52 -21.5zM391 645q29 0 50.5 21t21.5 52q0 30 -21.5 51t-50.5 21q-31 0 -52 -21t-21 -51t21 -51.5t52 -21.5z" />
    <glyph glyph-name="hookabovecomb" unicode="&#x309;" horiz-adv-x="0" 
d="M192 590q64 21 93 53.5t29 69.5q0 44 -36 72t-92 28q-16 0 -33 -2t-30 -7v-67q20 6 34 6q29 0 45 -13t16 -34q0 -33 -52 -60z" />
    <glyph glyph-name="uni030A" unicode="&#x30a;" horiz-adv-x="0" 
d="M251 583q36 0 64.5 16.5t45.5 45t17 63.5q0 36 -17 64.5t-45.5 45t-64.5 16.5q-55 0 -91.5 -36.5t-36.5 -89.5q0 -35 17 -63.5t46 -45t65 -16.5zM251 654q-24 0 -39.5 16t-15.5 38q0 23 15.5 39t39.5 16q23 0 38 -16t15 -39q0 -22 -15 -38t-38 -16z" />
    <glyph glyph-name="uni030B" unicode="&#x30b;" horiz-adv-x="0" 
d="M123 640h114l96 144h-147zM309 640h115l95 144h-147z" />
    <glyph glyph-name="uni030C" unicode="&#x30c;" horiz-adv-x="0" 
d="M242 640h136l120 144h-119l-68 -79l-66 79h-122z" />
    <glyph glyph-name="uni030F" unicode="&#x30f;" horiz-adv-x="0" 
d="M405 640h114l-63 144h-147zM218 640h115l-63 144h-147z" />
    <glyph glyph-name="uni0311" unicode="&#x311;" horiz-adv-x="0" 
d="M123 640h103q0 23 16.5 38.5t41.5 15.5t41.5 -15.5t16.5 -38.5h103q0 39 -21.5 72.5t-58 53.5t-81.5 20q-44 0 -80.5 -20t-58.5 -53.5t-22 -72.5z" />
    <glyph glyph-name="uni0312" unicode="&#x312;" horiz-adv-x="0" 
d="M123 521h132v140h-61q5 30 26 52t55 30v64q-75 -16 -113.5 -68t-38.5 -132v-86z" />
    <glyph glyph-name="uni031B" unicode="&#x31b;" horiz-adv-x="0" 
d="M123 640h26q63 0 103 32t40 99q0 26 -6.5 47t-16.5 42h-113q8 -19 14.5 -39.5t6.5 -37.5q0 -25 -9 -35.5t-20 -12.5t-19 -2h-6v-93z" />
    <glyph glyph-name="dotbelowcomb" unicode="&#x323;" horiz-adv-x="0" 
d="M196 -225q29 0 50.5 21t21.5 52q0 30 -21.5 51t-50.5 21q-31 0 -52 -21t-21 -51t21 -51.5t52 -21.5z" />
    <glyph glyph-name="uni0324" unicode="&#x324;" horiz-adv-x="0" 
d="M196 -225q29 0 50.5 21t21.5 52q0 30 -21.5 51t-50.5 21q-31 0 -52 -21t-21 -51t21 -51.5t52 -21.5zM391 -225q29 0 50.5 21t21.5 52q0 30 -21.5 51t-50.5 21q-31 0 -52 -21t-21 -51t21 -51.5t52 -21.5z" />
    <glyph glyph-name="uni0326" unicode="&#x326;" horiz-adv-x="0" 
d="M123 -376q152 32 152 210v86h-132v-140h61q-12 -75 -81 -92v-64z" />
    <glyph glyph-name="uni0327" unicode="&#x327;" horiz-adv-x="0" 
d="M207 -221q74 0 110.5 31.5t36.5 74.5q0 39 -25.5 61.5t-63.5 22.5q-7 0 -15 -1l5 62h-87l-15 -114l23 -11q5 2 16.5 4t22.5 2q33 0 33 -29q0 -33 -51 -33q-12 0 -30 2t-32 7l-12 -68q20 -6 44 -8.5t40 -2.5z" />
    <glyph glyph-name="uni0328" unicode="&#x328;" horiz-adv-x="0" 
d="M269 -216q33 0 68 11t72 40l-40 68q-20 -12 -42 -20t-45 -8q-29 0 -44.5 13t-15.5 33q0 21 20.5 41.5t75.5 35.5v33h-40q-43 -5 -78.5 -23.5t-56 -47t-20.5 -65.5q0 -52 42 -81.5t104 -29.5z" />
    <glyph glyph-name="uni032E" unicode="&#x32e;" horiz-adv-x="0" 
d="M284 -226q45 0 81.5 20.5t58 53.5t21.5 72h-103q0 -23 -16.5 -38.5t-41.5 -15.5t-41.5 15.5t-16.5 38.5h-103q0 -39 22 -72t58.5 -53.5t80.5 -20.5z" />
    <glyph glyph-name="uni0331" unicode="&#x331;" horiz-adv-x="0" 
d="M123 -197h281v97h-281v-97z" />
    <glyph glyph-name="uni0394" unicode="&#x394;" horiz-adv-x="630" 
d="M11 0h608v120l-216 625h-176l-216 -625v-120zM157 120l158 473l157 -473h-315z" />
    <glyph glyph-name="uni03A9" unicode="&#x3a9;" horiz-adv-x="878" 
d="M50 0h312v120q-52 16 -92 52.5t-62 88t-22 112.5q0 75 33 133.5t90.5 92.5t129.5 34q73 0 130 -34t90 -92.5t33 -133.5q0 -61 -22 -112.5t-61.5 -88t-92.5 -52.5v-120h313v120h-114q53 47 83.5 112.5t30.5 140.5q0 83 -29.5 153t-82.5 121.5t-124 80.5t-154 29t-154 -29
t-123.5 -80.5t-82 -121.5t-29.5 -153q0 -75 30.5 -140.5t82.5 -112.5h-113v-120z" />
    <glyph glyph-name="pi" unicode="&#x3c0;" horiz-adv-x="682" 
d="M114 0h132v427h192v-427h131v427h91v117h-638v-117h92v-427z" />
    <glyph glyph-name="uni0E3F" unicode="&#xe3f;" horiz-adv-x="691" 
d="M72 0h228v-100h85v100h1q125 0 195.5 60.5t70.5 167.5q0 51 -20 96t-70 77q31 28 45.5 62t14.5 72q0 98 -63 154t-173 56h-1v100h-85v-100h-228v-745zM208 456v173h92v-173h-92zM393 629q42 0 67 -23t25 -62t-25 -63.5t-67 -24.5h-8v173h8zM208 120v217h92v-217h-92z
M400 337q53 0 84.5 -29.5t31.5 -79.5q0 -49 -31.5 -78.5t-84.5 -29.5h-15v217h15z" />
    <glyph glyph-name="uni1E08" unicode="&#x1e08;" horiz-adv-x="774" 
d="M422 -12q80 0 143.5 27t107.5 71.5t63 97.5l-122 57q-22 -56 -71.5 -92.5t-120.5 -36.5q-70 0 -123 33t-83 91.5t-30 136.5t30 136.5t83 91t123 32.5q71 0 120.5 -36.5t71.5 -92.5l122 57q-19 53 -63 97.5t-107.5 71.5t-143.5 27t-148 -28.5t-118 -80t-78 -122
t-28 -153.5t28 -153.5t78 -122.5t118 -80.5t148 -28.5zM382 -251q74 0 110.5 31.5t36.5 74.5q0 39 -25.5 61.5t-63.5 22.5q-7 0 -15 -1l5 62h-87l-15 -114l23 -11q5 2 16.5 4t22.5 2q33 0 33 -29q0 -33 -51 -33q-12 0 -30 2t-32 7l-12 -68q20 -6 44 -8.5t40 -2.5zM330 842
h114l96 144h-147z" />
    <glyph glyph-name="uni1E09" unicode="&#x1e09;" horiz-adv-x="608" 
d="M323 -12q59 0 109 20.5t86 57t52 82.5l-115 52q-16 -43 -50.5 -67.5t-81.5 -24.5q-43 0 -76.5 21t-52.5 58.5t-19 84.5q0 48 19 85t52.5 58t76.5 21q47 0 81.5 -25t50.5 -66l115 50q-17 48 -53 84.5t-86 56.5t-108 20q-81 0 -145.5 -37t-101.5 -101t-37 -145t37 -145.5
t101.5 -102t145.5 -37.5zM318 -251q74 0 110.5 31.5t36.5 74.5q0 39 -25.5 61.5t-63.5 22.5q-7 0 -15 -1l5 62h-87l-15 -114l23 -11q5 2 16.5 4t22.5 2q33 0 33 -29q0 -33 -51 -33q-12 0 -30 2t-32 7l-12 -68q20 -6 44 -8.5t40 -2.5zM266 640h114l96 144h-147z" />
    <glyph glyph-name="uni1E0C" unicode="&#x1e0c;" horiz-adv-x="740" 
d="M72 0h243q118 0 205.5 48t135.5 132t48 193q0 110 -48 193.5t-135 131t-206 47.5h-243v-745zM208 120v505h110q76 0 131.5 -31t86.5 -87.5t31 -133.5t-30.5 -134t-86.5 -88t-132 -31h-110zM377 -225q29 0 50.5 21t21.5 52q0 30 -21.5 51t-50.5 21q-31 0 -52 -21t-21 -51
t21 -51.5t52 -21.5z" />
    <glyph glyph-name="uni1E0D" unicode="&#x1e0d;" horiz-adv-x="672" 
d="M314 -12q53 0 98 18.5t75 53.5v-60h124v745h-131v-256q-61 67 -167 67q-77 0 -139.5 -37.5t-98.5 -102t-36 -144.5t36 -144.5t98 -102t141 -37.5zM328 108q-44 0 -79 21t-54.5 58.5t-19.5 84.5t19.5 84t54.5 58.5t79 21.5t78.5 -21t54 -58t19.5 -85t-19.5 -85t-54 -58
t-78.5 -21zM337 -225q29 0 50.5 21t21.5 52q0 30 -21.5 51t-50.5 21q-31 0 -52 -21t-21 -51t21 -51.5t52 -21.5z" />
    <glyph glyph-name="uni1E0E" unicode="&#x1e0e;" horiz-adv-x="740" 
d="M72 0h243q118 0 205.5 48t135.5 132t48 193q0 110 -48 193.5t-135 131t-206 47.5h-243v-745zM208 120v505h110q76 0 131.5 -31t86.5 -87.5t31 -133.5t-30.5 -134t-86.5 -88t-132 -31h-110zM237 -197h281v97h-281v-97z" />
    <glyph glyph-name="uni1E0F" unicode="&#x1e0f;" horiz-adv-x="672" 
d="M314 -12q53 0 98 18.5t75 53.5v-60h124v745h-131v-256q-61 67 -167 67q-77 0 -139.5 -37.5t-98.5 -102t-36 -144.5t36 -144.5t98 -102t141 -37.5zM328 108q-44 0 -79 21t-54.5 58.5t-19.5 84.5t19.5 84t54.5 58.5t79 21.5t78.5 -21t54 -58t19.5 -85t-19.5 -85t-54 -58
t-78.5 -21zM196 -197h281v97h-281v-97z" />
    <glyph glyph-name="uni1E14" unicode="&#x1e14;" horiz-adv-x="595" 
d="M72 0h495v120h-359v194h339v120h-339v191h359v120h-495v-745zM273 1000h114l-49 112h-140zM180 861h281v97h-281v-97z" />
    <glyph glyph-name="uni1E15" unicode="&#x1e15;" horiz-adv-x="612" 
d="M319 -12q83 0 145.5 37.5t87.5 95.5l-106 52q-18 -31 -49.5 -50.5t-76.5 -19.5q-59 0 -99 36t-46 96h392q4 11 5.5 25.5t1.5 29.5q0 73 -31 133t-90 96.5t-144 36.5q-76 0 -137.5 -37t-97 -100.5t-35.5 -145.5q0 -79 35 -144t98 -103t147 -38zM309 448q52 0 86.5 -31.5
t38.5 -81.5h-256q11 54 46.5 83.5t84.5 29.5zM260 798h114l-49 112h-140zM167 659h281v97h-281v-97z" />
    <glyph glyph-name="uni1E16" unicode="&#x1e16;" horiz-adv-x="595" 
d="M72 0h495v120h-359v194h339v120h-339v191h359v120h-495v-745zM253 1000h114l75 112h-139zM180 861h281v97h-281v-97z" />
    <glyph glyph-name="uni1E17" unicode="&#x1e17;" horiz-adv-x="612" 
d="M319 -12q83 0 145.5 37.5t87.5 95.5l-106 52q-18 -31 -49.5 -50.5t-76.5 -19.5q-59 0 -99 36t-46 96h392q4 11 5.5 25.5t1.5 29.5q0 73 -31 133t-90 96.5t-144 36.5q-76 0 -137.5 -37t-97 -100.5t-35.5 -145.5q0 -79 35 -144t98 -103t147 -38zM309 448q52 0 86.5 -31.5
t38.5 -81.5h-256q11 54 46.5 83.5t84.5 29.5zM240 798h114l75 112h-139zM167 659h281v97h-281v-97z" />
    <glyph glyph-name="uni1E1C" unicode="&#x1e1c;" horiz-adv-x="595" 
d="M72 0h495v120h-359v194h339v120h-339v191h359v120h-495v-745zM315 -251q74 0 110.5 31.5t36.5 74.5q0 39 -25.5 61.5t-63.5 22.5q-7 0 -15 -1l5 62h-87l-15 -114l23 -11q5 2 16.5 4t22.5 2q33 0 33 -29q0 -33 -51 -33q-12 0 -30 2t-32 7l-12 -68q20 -6 44 -8.5t40 -2.5z
M320 842q45 0 81.5 20t58 53.5t21.5 72.5h-103q0 -23 -16.5 -38.5t-41.5 -15.5t-41.5 15.5t-16.5 38.5h-103q0 -39 22 -72.5t58.5 -53.5t80.5 -20z" />
    <glyph glyph-name="uni1E1D" unicode="&#x1e1d;" horiz-adv-x="612" 
d="M319 -12q83 0 145.5 37.5t87.5 95.5l-106 52q-18 -31 -49.5 -50.5t-76.5 -19.5q-59 0 -99 36t-46 96h392q4 11 5.5 25.5t1.5 29.5q0 73 -31 133t-90 96.5t-144 36.5q-76 0 -137.5 -37t-97 -100.5t-35.5 -145.5q0 -79 35 -144t98 -103t147 -38zM309 448q52 0 86.5 -31.5
t38.5 -81.5h-256q11 54 46.5 83.5t84.5 29.5zM302 -251q74 0 110.5 31.5t36.5 74.5q0 39 -25.5 61.5t-63.5 22.5q-7 0 -15 -1l5 62h-87l-15 -114l23 -11q5 2 16.5 4t22.5 2q33 0 33 -29q0 -33 -51 -33q-12 0 -30 2t-32 7l-12 -68q20 -6 44 -8.5t40 -2.5zM307 640
q45 0 81.5 20t58 53.5t21.5 72.5h-103q0 -23 -16.5 -38.5t-41.5 -15.5t-41.5 15.5t-16.5 38.5h-103q0 -39 22 -72.5t58.5 -53.5t80.5 -20z" />
    <glyph glyph-name="uni1E20" unicode="&#x1e20;" horiz-adv-x="808" 
d="M425 -12q66 0 128 22.5t111.5 67t78.5 110t29 152.5v75h-350v-115h214v-3q0 -57 -29 -98.5t-77 -64t-105 -22.5q-70 0 -124 33t-84.5 91.5t-30.5 136.5t30 136.5t83 91t123 32.5q71 0 121 -36t72 -94l121 58q-19 53 -63 97.5t-107.5 71.5t-143.5 27t-148 -28.5t-118 -80
t-78 -122t-28 -153.5t28.5 -153.5t79.5 -122.5t119 -80.5t148 -28.5zM264 861h281v97h-281v-97z" />
    <glyph glyph-name="uni1E21" unicode="&#x1e21;" horiz-adv-x="652" 
d="M325 -220q78 0 138 32t94 88t34 127v517h-124v-63q-62 75 -167 75q-75 0 -134 -34.5t-93 -94.5t-34 -137q0 -76 34 -137t94 -96t136 -35q99 0 157 64v-59q0 -60 -38 -93.5t-97 -33.5q-52 0 -87.5 23.5t-47.5 61.5l-122 -46q26 -72 95.5 -115.5t161.5 -43.5zM319 143
q-63 0 -103.5 41.5t-40.5 104.5q0 42 18.5 75.5t51.5 52.5t74 19q62 0 101.5 -41.5t39.5 -105.5t-39.5 -105t-101.5 -41zM186 659h281v97h-281v-97z" />
    <glyph glyph-name="uni1E24" unicode="&#x1e24;" horiz-adv-x="733" 
d="M72 0h136v300h317v-300h137v745h-137v-325h-317v325h-136v-745zM367 -225q29 0 50.5 21t21.5 52q0 30 -21.5 51t-50.5 21q-31 0 -52 -21t-21 -51t21 -51.5t52 -21.5z" />
    <glyph glyph-name="uni1E25" unicode="&#x1e25;" 
d="M61 0h131v319q0 53 31 85t79 32t79 -31.5t31 -85.5v-319h131v350q0 61 -26 107.5t-72.5 72.5t-106.5 26q-47 0 -85 -16.5t-61 -49.5v264h-131v-754zM297 -225q29 0 50.5 21t21.5 52q0 30 -21.5 51t-50.5 21q-31 0 -52 -21t-21 -51t21 -51.5t52 -21.5z" />
    <glyph glyph-name="uni1E2A" unicode="&#x1e2a;" horiz-adv-x="733" 
d="M72 0h136v300h317v-300h137v745h-137v-325h-317v325h-136v-745zM367 -226q45 0 81.5 20.5t58 53.5t21.5 72h-103q0 -23 -16.5 -38.5t-41.5 -15.5t-41.5 15.5t-16.5 38.5h-103q0 -39 22 -72t58.5 -53.5t80.5 -20.5z" />
    <glyph glyph-name="uni1E2B" unicode="&#x1e2b;" 
d="M61 0h131v319q0 53 31 85t79 32t79 -31.5t31 -85.5v-319h131v350q0 61 -26 107.5t-72.5 72.5t-106.5 26q-47 0 -85 -16.5t-61 -49.5v264h-131v-754zM297 -226q45 0 81.5 20.5t58 53.5t21.5 72h-103q0 -23 -16.5 -38.5t-41.5 -15.5t-41.5 15.5t-16.5 38.5h-103
q0 -39 22 -72t58.5 -53.5t80.5 -20.5z" />
    <glyph glyph-name="uni1E2E" unicode="&#x1e2e;" horiz-adv-x="279" 
d="M72 0h136v745h-136v-745zM93 1022h96l68 104h-115zM239 847q29 0 50.5 21t21.5 52q0 30 -21.5 51t-50.5 21q-31 0 -52 -21t-21 -51t21 -51.5t52 -21.5zM44 847q29 0 50.5 21t21.5 52q0 30 -21.5 51t-50.5 21q-31 0 -52 -21t-21 -51t21 -51.5t52 -21.5z" />
    <glyph glyph-name="uni1E2F" unicode="&#x1e2f;" horiz-adv-x="228" 
d="M49 0h131v544h-131v-544zM67 820h96l68 104h-115zM213 645q29 0 50.5 21t21.5 52q0 30 -21.5 51t-50.5 21q-31 0 -52 -21t-21 -51t21 -51.5t52 -21.5zM18 645q29 0 50.5 21t21.5 52q0 30 -21.5 51t-50.5 21q-31 0 -52 -21t-21 -51t21 -51.5t52 -21.5z" />
    <glyph glyph-name="uni1E36" unicode="&#x1e36;" horiz-adv-x="543" 
d="M72 0h455v120h-319v625h-136v-745zM300 -225q29 0 50.5 21t21.5 52q0 30 -21.5 51t-50.5 21q-31 0 -52 -21t-21 -51t21 -51.5t52 -21.5z" />
    <glyph glyph-name="uni1E37" unicode="&#x1e37;" horiz-adv-x="252" 
d="M61 0h131v745h-131v-745zM127 -225q29 0 50.5 21t21.5 52q0 30 -21.5 51t-50.5 21q-31 0 -52 -21t-21 -51t21 -51.5t52 -21.5z" />
    <glyph glyph-name="uni1E3A" unicode="&#x1e3a;" horiz-adv-x="543" 
d="M72 0h455v120h-319v625h-136v-745zM159 -197h281v97h-281v-97z" />
    <glyph glyph-name="uni1E3B" unicode="&#x1e3b;" horiz-adv-x="252" 
d="M61 0h131v745h-131v-745zM-14 -197h281v97h-281v-97z" />
    <glyph glyph-name="uni1E42" unicode="&#x1e42;" horiz-adv-x="893" 
d="M72 0h136v516l231 -316h16l230 306v-506h137v745h-130l-242 -336l-248 336h-130v-745zM447 -225q29 0 50.5 21t21.5 52q0 30 -21.5 51t-50.5 21q-31 0 -52 -21t-21 -51t21 -51.5t52 -21.5z" />
    <glyph glyph-name="uni1E43" unicode="&#x1e43;" horiz-adv-x="924" 
d="M61 0h131v319q0 53 29 85t76 32q48 0 76.5 -31.5t28.5 -85.5v-319h131v319q0 53 29 85t76 32q48 0 76.5 -31.5t28.5 -85.5v-319h131v350q0 61 -26.5 107.5t-71.5 72.5t-103 26q-54 0 -97.5 -22t-71.5 -66q-24 40 -68.5 64t-99.5 24q-51 0 -91 -20t-61 -60v68h-123v-544z
M463 -225q29 0 50.5 21t21.5 52q0 30 -21.5 51t-50.5 21q-31 0 -52 -21t-21 -51t21 -51.5t52 -21.5z" />
    <glyph glyph-name="uni1E44" unicode="&#x1e44;" horiz-adv-x="741" 
d="M72 0h136v487l354 -487h107v745h-136v-478l-355 478h-106v-745zM371 847q29 0 50.5 21t21.5 52q0 30 -21.5 51t-50.5 21q-31 0 -52 -21t-21 -51t21 -51.5t52 -21.5z" />
    <glyph glyph-name="uni1E45" unicode="&#x1e45;" 
d="M61 0h131v319q0 53 30.5 85t79.5 32t79.5 -31.5t30.5 -85.5v-319h131v350q0 61 -26 107.5t-72.5 72.5t-106.5 26q-51 0 -91.5 -20t-62.5 -59v67h-123v-544zM297 645q29 0 50.5 21t21.5 52q0 30 -21.5 51t-50.5 21q-31 0 -52 -21t-21 -51t21 -51.5t52 -21.5z" />
    <glyph glyph-name="uni1E46" unicode="&#x1e46;" horiz-adv-x="741" 
d="M72 0h136v487l354 -487h107v745h-136v-478l-355 478h-106v-745zM371 -225q29 0 50.5 21t21.5 52q0 30 -21.5 51t-50.5 21q-31 0 -52 -21t-21 -51t21 -51.5t52 -21.5z" />
    <glyph glyph-name="uni1E47" unicode="&#x1e47;" 
d="M61 0h131v319q0 53 30.5 85t79.5 32t79.5 -31.5t30.5 -85.5v-319h131v350q0 61 -26 107.5t-72.5 72.5t-106.5 26q-51 0 -91.5 -20t-62.5 -59v67h-123v-544zM297 -225q29 0 50.5 21t21.5 52q0 30 -21.5 51t-50.5 21q-31 0 -52 -21t-21 -51t21 -51.5t52 -21.5z" />
    <glyph glyph-name="uni1E48" unicode="&#x1e48;" horiz-adv-x="741" 
d="M72 0h136v487l354 -487h107v745h-136v-478l-355 478h-106v-745zM230 -197h281v97h-281v-97z" />
    <glyph glyph-name="uni1E49" unicode="&#x1e49;" 
d="M61 0h131v319q0 53 30.5 85t79.5 32t79.5 -31.5t30.5 -85.5v-319h131v350q0 61 -26 107.5t-72.5 72.5t-106.5 26q-51 0 -91.5 -20t-62.5 -59v67h-123v-544zM157 -197h281v97h-281v-97z" />
    <glyph glyph-name="uni1E4C" unicode="&#x1e4c;" horiz-adv-x="878" 
d="M439 -12q83 0 154 29t124 81t82.5 122.5t29.5 152.5q0 83 -29.5 153t-82.5 121.5t-124 80.5t-154 29t-154 -29t-123.5 -80.5t-82 -121.5t-29.5 -153q0 -82 29.5 -152.5t82.5 -122.5t124 -81t153 -29zM439 112q-72 0 -129.5 34t-90.5 93t-33 134t33 133.5t90.5 92.5
t129.5 34q73 0 130 -34t90 -92.5t33 -133.5t-33 -134t-90 -93t-130 -34zM388 1022h114l75 112h-140zM512 854q42 0 65.5 30.5t23.5 101.5h-84q0 -17 -7.5 -30t-22.5 -13q-18 0 -31.5 12t-31.5 24t-49 12q-40 0 -68 -30.5t-28 -102.5h83q2 19 9 31.5t23 12.5q18 0 32.5 -12
t33.5 -24t52 -12z" />
    <glyph glyph-name="uni1E4D" unicode="&#x1e4d;" horiz-adv-x="652" 
d="M327 -12q79 0 144 36.5t104 101t39 146.5t-38.5 146t-103.5 101t-145 37q-81 0 -146 -37t-103.5 -101t-38.5 -146t38.5 -146t104 -101t145.5 -37zM327 108q-44 0 -78.5 21t-54 58.5t-19.5 84.5t19.5 84t54 58.5t78.5 21.5t77.5 -21.5t53 -58.5t19.5 -84t-19.5 -84.5
t-53 -58.5t-77.5 -21zM275 820h114l75 112h-140zM399 652q42 0 65.5 30.5t23.5 101.5h-84q0 -17 -7.5 -30t-22.5 -13q-18 0 -31.5 12t-31.5 24t-49 12q-40 0 -68 -30.5t-28 -102.5h83q2 19 9 31.5t23 12.5q18 0 32.5 -12t33.5 -24t52 -12z" />
    <glyph glyph-name="uni1E4E" unicode="&#x1e4e;" horiz-adv-x="878" 
d="M439 -12q83 0 154 29t124 81t82.5 122.5t29.5 152.5q0 83 -29.5 153t-82.5 121.5t-124 80.5t-154 29t-154 -29t-123.5 -80.5t-82 -121.5t-29.5 -153q0 -82 29.5 -152.5t82.5 -122.5t124 -81t153 -29zM439 112q-72 0 -129.5 34t-90.5 93t-33 134t33 133.5t90.5 92.5
t129.5 34q73 0 130 -34t90 -92.5t33 -133.5t-33 -134t-90 -93t-130 -34zM343 1015q29 0 50.5 21t21.5 52q0 29 -21.5 50.5t-50.5 21.5q-31 0 -52 -21.5t-21 -50.5q0 -31 21 -52t52 -21zM538 1015q29 0 50.5 21t21.5 52q0 29 -21.5 50.5t-50.5 21.5q-31 0 -52 -21.5
t-21 -50.5q0 -31 21 -52t52 -21zM512 854q41 0 64.5 30.5t23.5 101.5h-83q-1 -17 -8.5 -30t-22.5 -13q-18 0 -31.5 12t-31 24t-48.5 12q-40 0 -68.5 -30.5t-28.5 -102.5h83q2 19 9 31.5t23 12.5q18 0 32.5 -12t34 -24t52.5 -12z" />
    <glyph glyph-name="uni1E4F" unicode="&#x1e4f;" horiz-adv-x="652" 
d="M327 -12q79 0 144 36.5t104 101t39 146.5t-38.5 146t-103.5 101t-145 37q-81 0 -146 -37t-103.5 -101t-38.5 -146t38.5 -146t104 -101t145.5 -37zM327 108q-44 0 -78.5 21t-54 58.5t-19.5 84.5t19.5 84t54 58.5t78.5 21.5t77.5 -21.5t53 -58.5t19.5 -84t-19.5 -84.5
t-53 -58.5t-77.5 -21zM230 813q29 0 50.5 21t21.5 52q0 29 -21.5 50.5t-50.5 21.5q-31 0 -52 -21.5t-21 -50.5q0 -31 21 -52t52 -21zM425 813q29 0 50.5 21t21.5 52q0 29 -21.5 50.5t-50.5 21.5q-31 0 -52 -21.5t-21 -50.5q0 -31 21 -52t52 -21zM399 652q41 0 64.5 30.5
t23.5 101.5h-83q-1 -17 -8.5 -30t-22.5 -13q-18 0 -31.5 12t-31 24t-48.5 12q-40 0 -68.5 -30.5t-28.5 -102.5h83q2 19 9 31.5t23 12.5q18 0 32.5 -12t34 -24t52.5 -12z" />
    <glyph glyph-name="uni1E50" unicode="&#x1e50;" horiz-adv-x="878" 
d="M439 -12q83 0 154 29t124 81t82.5 122.5t29.5 152.5q0 83 -29.5 153t-82.5 121.5t-124 80.5t-154 29t-154 -29t-123.5 -80.5t-82 -121.5t-29.5 -153q0 -82 29.5 -152.5t82.5 -122.5t124 -81t153 -29zM439 112q-72 0 -129.5 34t-90.5 93t-33 134t33 133.5t90.5 92.5
t129.5 34q73 0 130 -34t90 -92.5t33 -133.5t-33 -134t-90 -93t-130 -34zM392 1000h114l-49 112h-140zM299 861h281v97h-281v-97z" />
    <glyph glyph-name="uni1E51" unicode="&#x1e51;" horiz-adv-x="652" 
d="M327 -12q79 0 144 36.5t104 101t39 146.5t-38.5 146t-103.5 101t-145 37q-81 0 -146 -37t-103.5 -101t-38.5 -146t38.5 -146t104 -101t145.5 -37zM327 108q-44 0 -78.5 21t-54 58.5t-19.5 84.5t19.5 84t54 58.5t78.5 21.5t77.5 -21.5t53 -58.5t19.5 -84t-19.5 -84.5
t-53 -58.5t-77.5 -21zM280 798h114l-49 112h-140zM187 659h281v97h-281v-97z" />
    <glyph glyph-name="uni1E52" unicode="&#x1e52;" horiz-adv-x="878" 
d="M439 -12q83 0 154 29t124 81t82.5 122.5t29.5 152.5q0 83 -29.5 153t-82.5 121.5t-124 80.5t-154 29t-154 -29t-123.5 -80.5t-82 -121.5t-29.5 -153q0 -82 29.5 -152.5t82.5 -122.5t124 -81t153 -29zM439 112q-72 0 -129.5 34t-90.5 93t-33 134t33 133.5t90.5 92.5
t129.5 34q73 0 130 -34t90 -92.5t33 -133.5t-33 -134t-90 -93t-130 -34zM372 1000h114l75 112h-139zM299 861h281v97h-281v-97z" />
    <glyph glyph-name="uni1E53" unicode="&#x1e53;" horiz-adv-x="652" 
d="M327 -12q79 0 144 36.5t104 101t39 146.5t-38.5 146t-103.5 101t-145 37q-81 0 -146 -37t-103.5 -101t-38.5 -146t38.5 -146t104 -101t145.5 -37zM327 108q-44 0 -78.5 21t-54 58.5t-19.5 84.5t19.5 84t54 58.5t78.5 21.5t77.5 -21.5t53 -58.5t19.5 -84t-19.5 -84.5
t-53 -58.5t-77.5 -21zM260 798h114l75 112h-139zM187 659h281v97h-281v-97z" />
    <glyph glyph-name="uni1E5A" unicode="&#x1e5a;" horiz-adv-x="661" 
d="M72 0h136v275h128l154 -275h154l-171 299q62 26 98.5 80t36.5 131q0 76 -33 128t-91.5 79.5t-134.5 27.5h-277v-745zM208 395v230h143q55 0 88 -31t33 -84q0 -52 -33 -83.5t-88 -31.5h-143zM330 -225q29 0 50.5 21t21.5 52q0 30 -21.5 51t-50.5 21q-31 0 -52 -21t-21 -51
t21 -51.5t52 -21.5z" />
    <glyph glyph-name="uni1E5B" unicode="&#x1e5b;" horiz-adv-x="374" 
d="M61 0h131v303q0 62 34.5 96.5t89.5 34.5h47v116h-32q-50 0 -88 -18t-59 -65v77h-123v-544zM127 -225q29 0 50.5 21t21.5 52q0 30 -21.5 51t-50.5 21q-31 0 -52 -21t-21 -51t21 -51.5t52 -21.5z" />
    <glyph glyph-name="uni1E5E" unicode="&#x1e5e;" horiz-adv-x="661" 
d="M72 0h136v275h128l154 -275h154l-171 299q62 26 98.5 80t36.5 131q0 76 -33 128t-91.5 79.5t-134.5 27.5h-277v-745zM208 395v230h143q55 0 88 -31t33 -84q0 -52 -33 -83.5t-88 -31.5h-143zM189 -197h281v97h-281v-97z" />
    <glyph glyph-name="uni1E5F" unicode="&#x1e5f;" horiz-adv-x="374" 
d="M61 0h131v303q0 62 34.5 96.5t89.5 34.5h47v116h-32q-50 0 -88 -18t-59 -65v77h-123v-544zM-14 -197h281v97h-281v-97z" />
    <glyph glyph-name="uni1E60" unicode="&#x1e60;" horiz-adv-x="647" 
d="M338 -12q77 0 135 28t91 77t33 113q0 149 -178 206l-137 43q-40 13 -60.5 36.5t-20.5 54.5q0 41 31.5 66.5t83.5 25.5q58 0 102 -30.5t66 -86.5l112 50q-30 84 -104.5 135t-175.5 51q-73 0 -129.5 -27.5t-88 -76.5t-31.5 -113q0 -73 44 -126.5t131 -81.5l143 -46
q39 -13 58.5 -34t19.5 -54q0 -41 -32.5 -66t-85.5 -25q-64 0 -115 36.5t-78 100.5l-113 -49q20 -62 63.5 -108.5t104 -72.5t131.5 -26zM324 847q29 0 50.5 21t21.5 52q0 30 -21.5 51t-50.5 21q-31 0 -52 -21t-21 -51t21 -51.5t52 -21.5z" />
    <glyph glyph-name="uni1E61" unicode="&#x1e61;" horiz-adv-x="514" 
d="M268 -12q62 0 108 21t72 58.5t26 86.5q0 57 -36 98t-104 60l-87 26q-28 8 -46 21t-18 36q0 24 19 39t52 15q41 0 74.5 -22t46.5 -59l100 47q-25 66 -84 103.5t-136 37.5q-59 0 -104.5 -21t-71 -58.5t-25.5 -87.5q0 -56 35.5 -97t104.5 -61l89 -25q26 -7 44.5 -20.5
t18.5 -36.5q0 -27 -21.5 -42.5t-56.5 -15.5q-46 0 -83 26t-59 72l-98 -47q24 -70 88.5 -112t151.5 -42zM258 645q29 0 50.5 21t21.5 52q0 30 -21.5 51t-50.5 21q-31 0 -52 -21t-21 -51t21 -51.5t52 -21.5z" />
    <glyph glyph-name="uni1E62" unicode="&#x1e62;" horiz-adv-x="647" 
d="M338 -12q77 0 135 28t91 77t33 113q0 149 -178 206l-137 43q-40 13 -60.5 36.5t-20.5 54.5q0 41 31.5 66.5t83.5 25.5q58 0 102 -30.5t66 -86.5l112 50q-30 84 -104.5 135t-175.5 51q-73 0 -129.5 -27.5t-88 -76.5t-31.5 -113q0 -73 44 -126.5t131 -81.5l143 -46
q39 -13 58.5 -34t19.5 -54q0 -41 -32.5 -66t-85.5 -25q-64 0 -115 36.5t-78 100.5l-113 -49q20 -62 63.5 -108.5t104 -72.5t131.5 -26zM324 -225q29 0 50.5 21t21.5 52q0 30 -21.5 51t-50.5 21q-31 0 -52 -21t-21 -51t21 -51.5t52 -21.5z" />
    <glyph glyph-name="uni1E63" unicode="&#x1e63;" horiz-adv-x="514" 
d="M268 -12q62 0 108 21t72 58.5t26 86.5q0 57 -36 98t-104 60l-87 26q-28 8 -46 21t-18 36q0 24 19 39t52 15q41 0 74.5 -22t46.5 -59l100 47q-25 66 -84 103.5t-136 37.5q-59 0 -104.5 -21t-71 -58.5t-25.5 -87.5q0 -56 35.5 -97t104.5 -61l89 -25q26 -7 44.5 -20.5
t18.5 -36.5q0 -27 -21.5 -42.5t-56.5 -15.5q-46 0 -83 26t-59 72l-98 -47q24 -70 88.5 -112t151.5 -42zM258 -225q29 0 50.5 21t21.5 52q0 30 -21.5 51t-50.5 21q-31 0 -52 -21t-21 -51t21 -51.5t52 -21.5z" />
    <glyph glyph-name="uni1E64" unicode="&#x1e64;" horiz-adv-x="647" 
d="M338 -12q77 0 135 28t91 77t33 113q0 149 -178 206l-137 43q-40 13 -60.5 36.5t-20.5 54.5q0 41 31.5 66.5t83.5 25.5q58 0 102 -30.5t66 -86.5l112 50q-30 84 -104.5 135t-175.5 51q-73 0 -129.5 -27.5t-88 -76.5t-31.5 -113q0 -73 44 -126.5t131 -81.5l143 -46
q39 -13 58.5 -34t19.5 -54q0 -41 -32.5 -66t-85.5 -25q-64 0 -115 36.5t-78 100.5l-113 -49q20 -62 63.5 -108.5t104 -72.5t131.5 -26zM270 1022h114l75 112h-140zM324 847q29 0 50.5 21t21.5 52q0 30 -21.5 51t-50.5 21q-31 0 -52 -21t-21 -51t21 -51.5t52 -21.5z" />
    <glyph glyph-name="uni1E65" unicode="&#x1e65;" horiz-adv-x="514" 
d="M268 -12q62 0 108 21t72 58.5t26 86.5q0 57 -36 98t-104 60l-87 26q-28 8 -46 21t-18 36q0 24 19 39t52 15q41 0 74.5 -22t46.5 -59l100 47q-25 66 -84 103.5t-136 37.5q-59 0 -104.5 -21t-71 -58.5t-25.5 -87.5q0 -56 35.5 -97t104.5 -61l89 -25q26 -7 44.5 -20.5
t18.5 -36.5q0 -27 -21.5 -42.5t-56.5 -15.5q-46 0 -83 26t-59 72l-98 -47q24 -70 88.5 -112t151.5 -42zM204 820h114l75 112h-140zM258 645q29 0 50.5 21t21.5 52q0 30 -21.5 51t-50.5 21q-31 0 -52 -21t-21 -51t21 -51.5t52 -21.5z" />
    <glyph glyph-name="uni1E66" unicode="&#x1e66;" horiz-adv-x="647" 
d="M338 -12q77 0 135 28t91 77t33 113q0 149 -178 206l-137 43q-40 13 -60.5 36.5t-20.5 54.5q0 41 31.5 66.5t83.5 25.5q58 0 102 -30.5t66 -86.5l112 50q-30 84 -104.5 135t-175.5 51q-73 0 -129.5 -27.5t-88 -76.5t-31.5 -113q0 -73 44 -126.5t131 -81.5l143 -46
q39 -13 58.5 -34t19.5 -54q0 -41 -32.5 -66t-85.5 -25q-64 0 -115 36.5t-78 100.5l-113 -49q20 -62 63.5 -108.5t104 -72.5t131.5 -26zM325 986q29 0 50.5 21t21.5 52q0 30 -21.5 51t-50.5 21q-31 0 -52 -21t-21 -51t21 -51.5t52 -21.5zM255 842h136l120 144h-119l-68 -79
l-66 79h-122z" />
    <glyph glyph-name="uni1E67" unicode="&#x1e67;" horiz-adv-x="514" 
d="M268 -12q62 0 108 21t72 58.5t26 86.5q0 57 -36 98t-104 60l-87 26q-28 8 -46 21t-18 36q0 24 19 39t52 15q41 0 74.5 -22t46.5 -59l100 47q-25 66 -84 103.5t-136 37.5q-59 0 -104.5 -21t-71 -58.5t-25.5 -87.5q0 -56 35.5 -97t104.5 -61l89 -25q26 -7 44.5 -20.5
t18.5 -36.5q0 -27 -21.5 -42.5t-56.5 -15.5q-46 0 -83 26t-59 72l-98 -47q24 -70 88.5 -112t151.5 -42zM259 784q29 0 50.5 21t21.5 52q0 30 -21.5 51t-50.5 21q-31 0 -52 -21t-21 -51t21 -51.5t52 -21.5zM189 640h136l120 144h-119l-68 -79l-66 79h-122z" />
    <glyph glyph-name="uni1E68" unicode="&#x1e68;" horiz-adv-x="647" 
d="M338 -12q77 0 135 28t91 77t33 113q0 149 -178 206l-137 43q-40 13 -60.5 36.5t-20.5 54.5q0 41 31.5 66.5t83.5 25.5q58 0 102 -30.5t66 -86.5l112 50q-30 84 -104.5 135t-175.5 51q-73 0 -129.5 -27.5t-88 -76.5t-31.5 -113q0 -73 44 -126.5t131 -81.5l143 -46
q39 -13 58.5 -34t19.5 -54q0 -41 -32.5 -66t-85.5 -25q-64 0 -115 36.5t-78 100.5l-113 -49q20 -62 63.5 -108.5t104 -72.5t131.5 -26zM324 -225q29 0 50.5 21t21.5 52q0 30 -21.5 51t-50.5 21q-31 0 -52 -21t-21 -51t21 -51.5t52 -21.5zM324 847q29 0 50.5 21t21.5 52
q0 30 -21.5 51t-50.5 21q-31 0 -52 -21t-21 -51t21 -51.5t52 -21.5z" />
    <glyph glyph-name="uni1E69" unicode="&#x1e69;" horiz-adv-x="514" 
d="M268 -12q62 0 108 21t72 58.5t26 86.5q0 57 -36 98t-104 60l-87 26q-28 8 -46 21t-18 36q0 24 19 39t52 15q41 0 74.5 -22t46.5 -59l100 47q-25 66 -84 103.5t-136 37.5q-59 0 -104.5 -21t-71 -58.5t-25.5 -87.5q0 -56 35.5 -97t104.5 -61l89 -25q26 -7 44.5 -20.5
t18.5 -36.5q0 -27 -21.5 -42.5t-56.5 -15.5q-46 0 -83 26t-59 72l-98 -47q24 -70 88.5 -112t151.5 -42zM258 -225q29 0 50.5 21t21.5 52q0 30 -21.5 51t-50.5 21q-31 0 -52 -21t-21 -51t21 -51.5t52 -21.5zM258 645q29 0 50.5 21t21.5 52q0 30 -21.5 51t-50.5 21
q-31 0 -52 -21t-21 -51t21 -51.5t52 -21.5z" />
    <glyph glyph-name="uni1E6C" unicode="&#x1e6c;" horiz-adv-x="542" 
d="M204 0h137v625h190v120h-520v-120h193v-625zM272 -225q29 0 50.5 21t21.5 52q0 30 -21.5 51t-50.5 21q-31 0 -52 -21t-21 -51t21 -51.5t52 -21.5z" />
    <glyph glyph-name="uni1E6D" unicode="&#x1e6d;" horiz-adv-x="413" 
d="M309 -6q33 0 65 5v113q-19 -3 -35 -3q-48 0 -70 22t-22 63v233h125v117h-125v124h-131v-42q0 -40 -22 -61t-62 -21h-10v-117h94v-240q0 -91 50.5 -142t142.5 -51zM302 -225q29 0 50.5 21t21.5 52q0 30 -21.5 51t-50.5 21q-31 0 -52 -21t-21 -51t21 -51.5t52 -21.5z" />
    <glyph glyph-name="uni1E6E" unicode="&#x1e6e;" horiz-adv-x="542" 
d="M204 0h137v625h190v120h-520v-120h193v-625zM131 -197h281v97h-281v-97z" />
    <glyph glyph-name="uni1E6F" unicode="&#x1e6f;" horiz-adv-x="413" 
d="M309 -6q33 0 65 5v113q-19 -3 -35 -3q-48 0 -70 22t-22 63v233h125v117h-125v124h-131v-42q0 -40 -22 -61t-62 -21h-10v-117h94v-240q0 -91 50.5 -142t142.5 -51zM162 -197h281v97h-281v-97z" />
    <glyph glyph-name="uni1E78" unicode="&#x1e78;" horiz-adv-x="718" 
d="M359 -12q86 0 152.5 36t104.5 99t38 143v479h-136v-472q0 -47 -20.5 -83.5t-56 -57t-82.5 -20.5q-46 0 -82 20.5t-56.5 57t-20.5 83.5v472h-136v-479q0 -80 38 -143t104.5 -99t152.5 -36zM308 1022h114l75 112h-140zM432 854q42 0 65.5 30.5t23.5 101.5h-84
q0 -17 -7.5 -30t-22.5 -13q-18 0 -31.5 12t-31.5 24t-49 12q-40 0 -68 -30.5t-28 -102.5h83q2 19 9 31.5t23 12.5q18 0 32.5 -12t33.5 -24t52 -12z" />
    <glyph glyph-name="uni1E79" unicode="&#x1e79;" 
d="M255 -12q51 0 90.5 19.5t62.5 57.5v-65h124v544h-131v-319q0 -54 -31 -85.5t-79 -31.5q-49 0 -79.5 31t-30.5 83v322h-131v-333q0 -100 54.5 -161.5t150.5 -61.5zM245 820h114l75 112h-140zM369 652q42 0 65.5 30.5t23.5 101.5h-84q0 -17 -7.5 -30t-22.5 -13
q-18 0 -31.5 12t-31.5 24t-49 12q-40 0 -68 -30.5t-28 -102.5h83q2 19 9 31.5t23 12.5q18 0 32.5 -12t33.5 -24t52 -12z" />
    <glyph glyph-name="uni1E7A" unicode="&#x1e7a;" horiz-adv-x="718" 
d="M359 -12q86 0 152.5 36t104.5 99t38 143v479h-136v-472q0 -47 -20.5 -83.5t-56 -57t-82.5 -20.5q-46 0 -82 20.5t-56.5 57t-20.5 83.5v472h-136v-479q0 -80 38 -143t104.5 -99t152.5 -36zM264 1001q29 0 50.5 21t21.5 52q0 29 -21.5 50.5t-50.5 21.5q-31 0 -52 -21.5
t-21 -50.5q0 -31 21 -52t52 -21zM459 1001q29 0 50.5 21t21.5 52q0 29 -21.5 50.5t-50.5 21.5q-31 0 -52 -21.5t-21 -50.5q0 -31 21 -52t52 -21zM219 861h281v97h-281v-97z" />
    <glyph glyph-name="uni1E7B" unicode="&#x1e7b;" 
d="M255 -12q51 0 90.5 19.5t62.5 57.5v-65h124v544h-131v-319q0 -54 -31 -85.5t-79 -31.5q-49 0 -79.5 31t-30.5 83v322h-131v-333q0 -100 54.5 -161.5t150.5 -61.5zM202 799q29 0 50.5 21t21.5 52q0 29 -21.5 50.5t-50.5 21.5q-31 0 -52 -21.5t-21 -50.5q0 -31 21 -52
t52 -21zM397 799q29 0 50.5 21t21.5 52q0 29 -21.5 50.5t-50.5 21.5q-31 0 -52 -21.5t-21 -50.5q0 -31 21 -52t52 -21zM157 659h281v97h-281v-97z" />
    <glyph glyph-name="Wgrave" unicode="&#x1e80;" horiz-adv-x="1020" 
d="M211 0h156l143 536l143 -536h156l200 745h-146l-138 -560l-144 560h-141l-145 -560l-138 560h-146zM453 842h115l-63 144h-147z" />
    <glyph glyph-name="wgrave" unicode="&#x1e81;" horiz-adv-x="883" 
d="M198 0h116l128 367l126 -367h117l187 544h-138l-114 -342l-120 342h-116l-121 -343l-114 343h-138zM384 640h115l-63 144h-147z" />
    <glyph glyph-name="Wacute" unicode="&#x1e82;" horiz-adv-x="1020" 
d="M211 0h156l143 536l143 -536h156l200 745h-146l-138 -560l-144 560h-141l-145 -560l-138 560h-146zM453 842h114l96 144h-147z" />
    <glyph glyph-name="wacute" unicode="&#x1e83;" horiz-adv-x="883" 
d="M198 0h116l128 367l126 -367h117l187 544h-138l-114 -342l-120 342h-116l-121 -343l-114 343h-138zM385 640h114l96 144h-147z" />
    <glyph glyph-name="Wdieresis" unicode="&#x1e84;" horiz-adv-x="1020" 
d="M211 0h156l143 536l143 -536h156l200 745h-146l-138 -560l-144 560h-141l-145 -560l-138 560h-146zM414 847q29 0 50.5 21t21.5 52q0 30 -21.5 51t-50.5 21q-31 0 -52 -21t-21 -51t21 -51.5t52 -21.5zM609 847q29 0 50.5 21t21.5 52q0 30 -21.5 51t-50.5 21
q-31 0 -52 -21t-21 -51t21 -51.5t52 -21.5z" />
    <glyph glyph-name="wdieresis" unicode="&#x1e85;" horiz-adv-x="883" 
d="M198 0h116l128 367l126 -367h117l187 544h-138l-114 -342l-120 342h-116l-121 -343l-114 343h-138zM345 645q29 0 50.5 21t21.5 52q0 30 -21.5 51t-50.5 21q-31 0 -52 -21t-21 -51t21 -51.5t52 -21.5zM540 645q29 0 50.5 21t21.5 52q0 30 -21.5 51t-50.5 21
q-31 0 -52 -21t-21 -51t21 -51.5t52 -21.5z" />
    <glyph glyph-name="uni1E8E" unicode="&#x1e8e;" horiz-adv-x="660" 
d="M262 0h137v331l250 414h-155l-164 -277l-164 277h-155l251 -415v-330zM331 847q29 0 50.5 21t21.5 52q0 30 -21.5 51t-50.5 21q-31 0 -52 -21t-21 -51t21 -51.5t52 -21.5z" />
    <glyph glyph-name="uni1E8F" unicode="&#x1e8f;" horiz-adv-x="586" 
d="M127 -221q77 0 128.5 43.5t82.5 122.5l237 599h-142l-140 -375l-141 375h-141l215 -544l-12 -29q-16 -34 -36.5 -55t-65.5 -21q-16 0 -34 2.5t-32 6.5v-110q17 -8 38 -11.5t43 -3.5zM293 645q29 0 50.5 21t21.5 52q0 30 -21.5 51t-50.5 21q-31 0 -52 -21t-21 -51
t21 -51.5t52 -21.5z" />
    <glyph glyph-name="uni1E92" unicode="&#x1e92;" horiz-adv-x="571" 
d="M14 0h544v120h-370l360 518v107h-513v-120h340l-361 -518v-107zM287 -225q29 0 50.5 21t21.5 52q0 30 -21.5 51t-50.5 21q-31 0 -52 -21t-21 -51t21 -51.5t52 -21.5z" />
    <glyph glyph-name="uni1E93" unicode="&#x1e93;" horiz-adv-x="481" 
d="M14 0h454v116h-274l272 321v107h-438v-117h263l-277 -321v-106zM244 -225q29 0 50.5 21t21.5 52q0 30 -21.5 51t-50.5 21q-31 0 -52 -21t-21 -51t21 -51.5t52 -21.5z" />
    <glyph glyph-name="uni1E97" unicode="&#x1e97;" horiz-adv-x="413" 
d="M309 -6q33 0 65 5v113q-19 -3 -35 -3q-48 0 -70 22t-22 63v233h125v117h-125v124h-131v-42q0 -40 -22 -61t-62 -21h-10v-117h94v-240q0 -91 50.5 -142t142.5 -51zM85 769q29 0 50.5 21t21.5 52q0 30 -21.5 51t-50.5 21q-31 0 -52 -21t-21 -51t21 -51.5t52 -21.5zM280 769
q29 0 50.5 21t21.5 52q0 30 -21.5 51t-50.5 21q-31 0 -52 -21t-21 -51t21 -51.5t52 -21.5z" />
    <glyph glyph-name="uni1E9E" unicode="&#x1e9e;" horiz-adv-x="1294" 
d="M338 -12q77 0 135 28t91 77t33 113q0 149 -178 206l-137 43q-40 13 -60.5 36.5t-20.5 54.5q0 41 31.5 66.5t83.5 25.5q58 0 102 -30.5t66 -86.5l112 50q-30 84 -104.5 135t-175.5 51q-73 0 -129.5 -27.5t-88 -76.5t-31.5 -113q0 -73 44 -126.5t131 -81.5l143 -46
q39 -13 58.5 -34t19.5 -54q0 -41 -32.5 -66t-85.5 -25q-64 0 -115 36.5t-78 100.5l-113 -49q20 -62 63.5 -108.5t104 -72.5t131.5 -26zM985 -12q77 0 135 28t91 77t33 113q0 149 -178 206l-137 43q-40 13 -60.5 36.5t-20.5 54.5q0 41 31.5 66.5t83.5 25.5q58 0 102 -30.5
t66 -86.5l112 50q-30 84 -104.5 135t-175.5 51q-73 0 -129.5 -27.5t-88 -76.5t-31.5 -113q0 -73 44 -126.5t131 -81.5l143 -46q39 -13 58.5 -34t19.5 -54q0 -41 -32.5 -66t-85.5 -25q-64 0 -115 36.5t-78 100.5l-113 -49q20 -62 63.5 -108.5t104 -72.5t131.5 -26z" />
    <glyph glyph-name="uni1EA0" unicode="&#x1ea0;" horiz-adv-x="712" 
d="M11 0h147l54 160h288l53 -160h148l-257 745h-176zM251 280l105 314l105 -314h-210zM357 -225q29 0 50.5 21t21.5 52q0 30 -21.5 51t-50.5 21q-31 0 -52 -21t-21 -51t21 -51.5t52 -21.5z" />
    <glyph glyph-name="uni1EA1" unicode="&#x1ea1;" horiz-adv-x="580" 
d="M226 -12q106 0 170 70v-58h124v362q0 57 -29 101t-79.5 68.5t-117.5 24.5q-82 0 -146 -39t-88 -103l107 -52q15 37 47 59.5t75 22.5q45 0 72.5 -23.5t27.5 -58.5v-18l-162 -26q-96 -16 -142 -61t-46 -113q0 -72 51 -114t136 -42zM175 149q0 57 77 72l137 23v-22
q0 -56 -38.5 -95t-100.5 -39q-33 0 -54 16.5t-21 44.5zM291 -225q29 0 50.5 21t21.5 52q0 30 -21.5 51t-50.5 21q-31 0 -52 -21t-21 -51t21 -51.5t52 -21.5z" />
    <glyph glyph-name="uni1EA2" unicode="&#x1ea2;" horiz-adv-x="712" 
d="M11 0h147l54 160h288l53 -160h148l-257 745h-176zM251 280l105 314l105 -314h-210zM330 792q64 21 93 53.5t29 69.5q0 44 -36 72t-92 28q-16 0 -33 -2t-30 -7v-67q20 6 34 6q29 0 45 -13t16 -34q0 -33 -52 -60z" />
    <glyph glyph-name="uni1EA3" unicode="&#x1ea3;" horiz-adv-x="580" 
d="M226 -12q106 0 170 70v-58h124v362q0 57 -29 101t-79.5 68.5t-117.5 24.5q-82 0 -146 -39t-88 -103l107 -52q15 37 47 59.5t75 22.5q45 0 72.5 -23.5t27.5 -58.5v-18l-162 -26q-96 -16 -142 -61t-46 -113q0 -72 51 -114t136 -42zM175 149q0 57 77 72l137 23v-22
q0 -56 -38.5 -95t-100.5 -39q-33 0 -54 16.5t-21 44.5zM264 590q64 21 93 53.5t29 69.5q0 44 -36 72t-92 28q-16 0 -33 -2t-30 -7v-67q20 6 34 6q29 0 45 -13t16 -34q0 -33 -52 -60z" />
    <glyph glyph-name="uni1EA4" unicode="&#x1ea4;" horiz-adv-x="712" 
d="M11 0h147l54 160h288l53 -160h148l-257 745h-176zM251 280l105 314l105 -314h-210zM443 964h114l75 112h-139zM168 842h122l66 79l68 -79h119l-120 144h-136z" />
    <glyph glyph-name="uni1EA5" unicode="&#x1ea5;" horiz-adv-x="580" 
d="M226 -12q106 0 170 70v-58h124v362q0 57 -29 101t-79.5 68.5t-117.5 24.5q-82 0 -146 -39t-88 -103l107 -52q15 37 47 59.5t75 22.5q45 0 72.5 -23.5t27.5 -58.5v-18l-162 -26q-96 -16 -142 -61t-46 -113q0 -72 51 -114t136 -42zM175 149q0 57 77 72l137 23v-22
q0 -56 -38.5 -95t-100.5 -39q-33 0 -54 16.5t-21 44.5zM377 762h114l75 112h-139zM102 640h122l66 79l68 -79h119l-120 144h-136z" />
    <glyph glyph-name="uni1EA6" unicode="&#x1ea6;" horiz-adv-x="712" 
d="M11 0h147l54 160h288l53 -160h148l-257 745h-176zM251 280l105 314l105 -314h-210zM466 964h96l-49 103h-115zM168 842h122l66 79l68 -79h119l-120 144h-136z" />
    <glyph glyph-name="uni1EA7" unicode="&#x1ea7;" horiz-adv-x="580" 
d="M226 -12q106 0 170 70v-58h124v362q0 57 -29 101t-79.5 68.5t-117.5 24.5q-82 0 -146 -39t-88 -103l107 -52q15 37 47 59.5t75 22.5q45 0 72.5 -23.5t27.5 -58.5v-18l-162 -26q-96 -16 -142 -61t-46 -113q0 -72 51 -114t136 -42zM175 149q0 57 77 72l137 23v-22
q0 -56 -38.5 -95t-100.5 -39q-33 0 -54 16.5t-21 44.5zM400 762h96l-49 103h-115zM102 640h122l66 79l68 -79h119l-120 144h-136z" />
    <glyph glyph-name="uni1EA8" unicode="&#x1ea8;" horiz-adv-x="712" 
d="M11 0h147l54 160h288l53 -160h148l-257 745h-176zM251 280l105 314l105 -314h-210zM504 920q64 21 93 53.5t29 69.5q0 44 -36 72t-92 28q-16 0 -32.5 -2t-30.5 -7v-67q20 6 34 6q29 0 45 -13t16 -34q0 -18 -12 -32t-40 -28zM168 842h122l66 79l68 -79h119l-120 144h-136z
" />
    <glyph glyph-name="uni1EA9" unicode="&#x1ea9;" horiz-adv-x="580" 
d="M226 -12q106 0 170 70v-58h124v362q0 57 -29 101t-79.5 68.5t-117.5 24.5q-82 0 -146 -39t-88 -103l107 -52q15 37 47 59.5t75 22.5q45 0 72.5 -23.5t27.5 -58.5v-18l-162 -26q-96 -16 -142 -61t-46 -113q0 -72 51 -114t136 -42zM175 149q0 57 77 72l137 23v-22
q0 -56 -38.5 -95t-100.5 -39q-33 0 -54 16.5t-21 44.5zM438 718q64 21 93 53.5t29 69.5q0 44 -36 72t-92 28q-16 0 -32.5 -2t-30.5 -7v-67q20 6 34 6q29 0 45 -13t16 -34q0 -18 -12 -32t-40 -28zM102 640h122l66 79l68 -79h119l-120 144h-136z" />
    <glyph glyph-name="uni1EAA" unicode="&#x1eaa;" horiz-adv-x="712" 
d="M11 0h147l54 160h288l53 -160h148l-257 745h-176zM251 280l105 314l105 -314h-210zM425 1017q40 0 62.5 29.5t23.5 93.5h-75q-1 -18 -8.5 -30.5t-23.5 -12.5q-18 0 -31.5 12t-31.5 24t-48 12q-38 0 -65 -29.5t-27 -94.5h75q2 20 9 31.5t23 11.5q18 0 32.5 -11.5
t33.5 -23.5t51 -12zM168 842h122l66 79l68 -79h119l-120 144h-136z" />
    <glyph glyph-name="uni1EAB" unicode="&#x1eab;" horiz-adv-x="580" 
d="M226 -12q106 0 170 70v-58h124v362q0 57 -29 101t-79.5 68.5t-117.5 24.5q-82 0 -146 -39t-88 -103l107 -52q15 37 47 59.5t75 22.5q45 0 72.5 -23.5t27.5 -58.5v-18l-162 -26q-96 -16 -142 -61t-46 -113q0 -72 51 -114t136 -42zM175 149q0 57 77 72l137 23v-22
q0 -56 -38.5 -95t-100.5 -39q-33 0 -54 16.5t-21 44.5zM360 815q40 0 62.5 29.5t23.5 93.5h-75q-1 -18 -8.5 -30.5t-23.5 -12.5q-18 0 -31.5 12t-31.5 24t-48 12q-38 0 -65 -29.5t-27 -94.5h75q2 20 9 31.5t23 11.5q18 0 32.5 -11.5t33.5 -23.5t51 -12zM103 640h122l66 79
l68 -79h119l-120 144h-136z" />
    <glyph glyph-name="uni1EAC" unicode="&#x1eac;" horiz-adv-x="712" 
d="M11 0h147l54 160h288l53 -160h148l-257 745h-176zM251 280l105 314l105 -314h-210zM357 -225q29 0 50.5 21t21.5 52q0 30 -21.5 51t-50.5 21q-31 0 -52 -21t-21 -51t21 -51.5t52 -21.5zM168 842h122l66 79l68 -79h119l-120 144h-136z" />
    <glyph glyph-name="uni1EAD" unicode="&#x1ead;" horiz-adv-x="580" 
d="M226 -12q106 0 170 70v-58h124v362q0 57 -29 101t-79.5 68.5t-117.5 24.5q-82 0 -146 -39t-88 -103l107 -52q15 37 47 59.5t75 22.5q45 0 72.5 -23.5t27.5 -58.5v-18l-162 -26q-96 -16 -142 -61t-46 -113q0 -72 51 -114t136 -42zM175 149q0 57 77 72l137 23v-22
q0 -56 -38.5 -95t-100.5 -39q-33 0 -54 16.5t-21 44.5zM291 -225q29 0 50.5 21t21.5 52q0 30 -21.5 51t-50.5 21q-31 0 -52 -21t-21 -51t21 -51.5t52 -21.5zM102 640h122l66 79l68 -79h119l-120 144h-136z" />
    <glyph glyph-name="uni1EAE" unicode="&#x1eae;" horiz-adv-x="712" 
d="M11 0h147l54 160h288l53 -160h148l-257 745h-176zM251 280l105 314l105 -314h-210zM300 1022h114l75 112h-140zM356 842q45 0 81.5 20t58 53.5t21.5 72.5h-103q0 -23 -16.5 -38.5t-41.5 -15.5t-41.5 15.5t-16.5 38.5h-103q0 -39 22 -72.5t58.5 -53.5t80.5 -20z" />
    <glyph glyph-name="uni1EAF" unicode="&#x1eaf;" horiz-adv-x="580" 
d="M226 -12q106 0 170 70v-58h124v362q0 57 -29 101t-79.5 68.5t-117.5 24.5q-82 0 -146 -39t-88 -103l107 -52q15 37 47 59.5t75 22.5q45 0 72.5 -23.5t27.5 -58.5v-18l-162 -26q-96 -16 -142 -61t-46 -113q0 -72 51 -114t136 -42zM175 149q0 57 77 72l137 23v-22
q0 -56 -38.5 -95t-100.5 -39q-33 0 -54 16.5t-21 44.5zM235 820h114l75 112h-140zM291 640q45 0 81.5 20t58 53.5t21.5 72.5h-103q0 -23 -16.5 -38.5t-41.5 -15.5t-41.5 15.5t-16.5 38.5h-103q0 -39 22 -72.5t58.5 -53.5t80.5 -20z" />
    <glyph glyph-name="uni1EB0" unicode="&#x1eb0;" horiz-adv-x="712" 
d="M11 0h147l54 160h288l53 -160h148l-257 745h-176zM251 280l105 314l105 -314h-210zM298 1022h114l-49 112h-140zM356 842q45 0 81.5 20t58 53.5t21.5 72.5h-103q0 -23 -16 -38.5t-42 -15.5q-25 0 -42 15.5t-17 38.5h-102q0 -39 22 -72.5t58.5 -53.5t80.5 -20z" />
    <glyph glyph-name="uni1EB1" unicode="&#x1eb1;" horiz-adv-x="580" 
d="M226 -12q106 0 170 70v-58h124v362q0 57 -29 101t-79.5 68.5t-117.5 24.5q-82 0 -146 -39t-88 -103l107 -52q15 37 47 59.5t75 22.5q45 0 72.5 -23.5t27.5 -58.5v-18l-162 -26q-96 -16 -142 -61t-46 -113q0 -72 51 -114t136 -42zM175 149q0 57 77 72l137 23v-22
q0 -56 -38.5 -95t-100.5 -39q-33 0 -54 16.5t-21 44.5zM233 820h114l-49 112h-140zM291 640q45 0 81.5 20t58 53.5t21.5 72.5h-103q0 -23 -16 -38.5t-42 -15.5q-25 0 -42 15.5t-17 38.5h-102q0 -39 22 -72.5t58.5 -53.5t80.5 -20z" />
    <glyph glyph-name="uni1EB2" unicode="&#x1eb2;" horiz-adv-x="712" 
d="M11 0h147l54 160h288l53 -160h148l-257 745h-176zM251 280l105 314l105 -314h-210zM341 984q64 21 93 53t29 69q0 44 -36 72.5t-92 28.5q-33 0 -63 -10v-66q20 6 34 6q29 0 45 -13t16 -34q0 -18 -12 -32t-40 -28zM356 842q45 0 81.5 20t58 53.5t21.5 72.5h-103
q0 -23 -16.5 -38.5t-41.5 -15.5t-41.5 15.5t-16.5 38.5h-103q0 -39 22 -72.5t58.5 -53.5t80.5 -20z" />
    <glyph glyph-name="uni1EB3" unicode="&#x1eb3;" horiz-adv-x="580" 
d="M226 -12q106 0 170 70v-58h124v362q0 57 -29 101t-79.5 68.5t-117.5 24.5q-82 0 -146 -39t-88 -103l107 -52q15 37 47 59.5t75 22.5q45 0 72.5 -23.5t27.5 -58.5v-18l-162 -26q-96 -16 -142 -61t-46 -113q0 -72 51 -114t136 -42zM175 149q0 57 77 72l137 23v-22
q0 -56 -38.5 -95t-100.5 -39q-33 0 -54 16.5t-21 44.5zM276 782q64 21 93 53t29 69q0 44 -36 72.5t-92 28.5q-33 0 -63 -10v-66q20 6 34 6q29 0 45 -13t16 -34q0 -18 -12 -32t-40 -28zM291 640q45 0 81.5 20t58 53.5t21.5 72.5h-103q0 -23 -16.5 -38.5t-41.5 -15.5
t-41.5 15.5t-16.5 38.5h-103q0 -39 22 -72.5t58.5 -53.5t80.5 -20z" />
    <glyph glyph-name="uni1EB4" unicode="&#x1eb4;" horiz-adv-x="712" 
d="M11 0h147l54 160h288l53 -160h148l-257 745h-176zM251 280l105 314l105 -314h-210zM425 1025q40 0 63 29t23 93h-75q-1 -17 -8.5 -29.5t-22.5 -12.5q-18 0 -31.5 12t-31.5 23.5t-48 11.5q-39 0 -65.5 -29t-27.5 -94h75q2 20 9.5 31.5t23.5 11.5q18 0 32 -11.5t33 -23.5
t51 -12zM356 842q46 0 82.5 20t58 53.5t21.5 72.5h-103q0 -23 -16.5 -38.5t-42.5 -15.5q-25 0 -41.5 15.5t-16.5 38.5h-103q0 -39 22 -72.5t58.5 -53.5t80.5 -20z" />
    <glyph glyph-name="uni1EB5" unicode="&#x1eb5;" horiz-adv-x="580" 
d="M226 -12q106 0 170 70v-58h124v362q0 57 -29 101t-79.5 68.5t-117.5 24.5q-82 0 -146 -39t-88 -103l107 -52q15 37 47 59.5t75 22.5q45 0 72.5 -23.5t27.5 -58.5v-18l-162 -26q-96 -16 -142 -61t-46 -113q0 -72 51 -114t136 -42zM175 149q0 57 77 72l137 23v-22
q0 -56 -38.5 -95t-100.5 -39q-33 0 -54 16.5t-21 44.5zM359 823q40 0 63 29t23 93h-75q-1 -17 -8.5 -29.5t-22.5 -12.5q-18 0 -31.5 12t-31.5 23.5t-48 11.5q-39 0 -65.5 -29t-27.5 -94h75q2 20 9.5 31.5t23.5 11.5q18 0 32 -11.5t33 -23.5t51 -12zM290 640q46 0 82.5 20
t58 53.5t21.5 72.5h-103q0 -23 -16.5 -38.5t-42.5 -15.5q-25 0 -41.5 15.5t-16.5 38.5h-103q0 -39 22 -72.5t58.5 -53.5t80.5 -20z" />
    <glyph glyph-name="uni1EB6" unicode="&#x1eb6;" horiz-adv-x="712" 
d="M11 0h147l54 160h288l53 -160h148l-257 745h-176zM251 280l105 314l105 -314h-210zM357 -225q29 0 50.5 21t21.5 52q0 30 -21.5 51t-50.5 21q-31 0 -52 -21t-21 -51t21 -51.5t52 -21.5zM356 842q45 0 81.5 20t58 53.5t21.5 72.5h-103q0 -23 -16.5 -38.5t-41.5 -15.5
t-41.5 15.5t-16.5 38.5h-103q0 -39 22 -72.5t58.5 -53.5t80.5 -20z" />
    <glyph glyph-name="uni1EB7" unicode="&#x1eb7;" horiz-adv-x="580" 
d="M226 -12q106 0 170 70v-58h124v362q0 57 -29 101t-79.5 68.5t-117.5 24.5q-82 0 -146 -39t-88 -103l107 -52q15 37 47 59.5t75 22.5q45 0 72.5 -23.5t27.5 -58.5v-18l-162 -26q-96 -16 -142 -61t-46 -113q0 -72 51 -114t136 -42zM175 149q0 57 77 72l137 23v-22
q0 -56 -38.5 -95t-100.5 -39q-33 0 -54 16.5t-21 44.5zM291 -225q29 0 50.5 21t21.5 52q0 30 -21.5 51t-50.5 21q-31 0 -52 -21t-21 -51t21 -51.5t52 -21.5zM291 640q45 0 81.5 20t58 53.5t21.5 72.5h-103q0 -23 -16.5 -38.5t-41.5 -15.5t-41.5 15.5t-16.5 38.5h-103
q0 -39 22 -72.5t58.5 -53.5t80.5 -20z" />
    <glyph glyph-name="uni1EB8" unicode="&#x1eb8;" horiz-adv-x="595" 
d="M72 0h495v120h-359v194h339v120h-339v191h359v120h-495v-745zM320 -225q29 0 50.5 21t21.5 52q0 30 -21.5 51t-50.5 21q-31 0 -52 -21t-21 -51t21 -51.5t52 -21.5z" />
    <glyph glyph-name="uni1EB9" unicode="&#x1eb9;" horiz-adv-x="612" 
d="M319 -12q83 0 145.5 37.5t87.5 95.5l-106 52q-18 -31 -49.5 -50.5t-76.5 -19.5q-59 0 -99 36t-46 96h392q4 11 5.5 25.5t1.5 29.5q0 73 -31 133t-90 96.5t-144 36.5q-76 0 -137.5 -37t-97 -100.5t-35.5 -145.5q0 -79 35 -144t98 -103t147 -38zM309 448q52 0 86.5 -31.5
t38.5 -81.5h-256q11 54 46.5 83.5t84.5 29.5zM307 -225q29 0 50.5 21t21.5 52q0 30 -21.5 51t-50.5 21q-31 0 -52 -21t-21 -51t21 -51.5t52 -21.5z" />
    <glyph glyph-name="uni1EBA" unicode="&#x1eba;" horiz-adv-x="595" 
d="M72 0h495v120h-359v194h339v120h-339v191h359v120h-495v-745zM293 792q64 21 93 53.5t29 69.5q0 44 -36 72t-92 28q-16 0 -33 -2t-30 -7v-67q20 6 34 6q29 0 45 -13t16 -34q0 -33 -52 -60z" />
    <glyph glyph-name="uni1EBB" unicode="&#x1ebb;" horiz-adv-x="612" 
d="M319 -12q83 0 145.5 37.5t87.5 95.5l-106 52q-18 -31 -49.5 -50.5t-76.5 -19.5q-59 0 -99 36t-46 96h392q4 11 5.5 25.5t1.5 29.5q0 73 -31 133t-90 96.5t-144 36.5q-76 0 -137.5 -37t-97 -100.5t-35.5 -145.5q0 -79 35 -144t98 -103t147 -38zM309 448q52 0 86.5 -31.5
t38.5 -81.5h-256q11 54 46.5 83.5t84.5 29.5zM280 590q64 21 93 53.5t29 69.5q0 44 -36 72t-92 28q-16 0 -33 -2t-30 -7v-67q20 6 34 6q29 0 45 -13t16 -34q0 -33 -52 -60z" />
    <glyph glyph-name="uni1EBC" unicode="&#x1ebc;" horiz-adv-x="595" 
d="M72 0h495v120h-359v194h339v120h-339v191h359v120h-495v-745zM392 854q42 0 65.5 30.5t23.5 101.5h-84q0 -17 -7.5 -30t-22.5 -13q-18 0 -31.5 12t-31.5 24t-49 12q-40 0 -68 -30.5t-28 -102.5h83q2 19 9 31.5t23 12.5q18 0 32.5 -12t33.5 -24t52 -12z" />
    <glyph glyph-name="uni1EBD" unicode="&#x1ebd;" horiz-adv-x="612" 
d="M319 -12q83 0 145.5 37.5t87.5 95.5l-106 52q-18 -31 -49.5 -50.5t-76.5 -19.5q-59 0 -99 36t-46 96h392q4 11 5.5 25.5t1.5 29.5q0 73 -31 133t-90 96.5t-144 36.5q-76 0 -137.5 -37t-97 -100.5t-35.5 -145.5q0 -79 35 -144t98 -103t147 -38zM309 448q52 0 86.5 -31.5
t38.5 -81.5h-256q11 54 46.5 83.5t84.5 29.5zM379 652q42 0 65.5 30.5t23.5 101.5h-84q0 -17 -7.5 -30t-22.5 -13q-18 0 -31.5 12t-31.5 24t-49 12q-40 0 -68 -30.5t-28 -102.5h83q2 19 9 31.5t23 12.5q18 0 32.5 -12t33.5 -24t52 -12z" />
    <glyph glyph-name="uni1EBE" unicode="&#x1ebe;" horiz-adv-x="595" 
d="M72 0h495v120h-359v194h339v120h-339v191h359v120h-495v-745zM406 964h114l75 112h-139zM131 842h122l66 79l68 -79h119l-120 144h-136z" />
    <glyph glyph-name="uni1EBF" unicode="&#x1ebf;" horiz-adv-x="612" 
d="M319 -12q83 0 145.5 37.5t87.5 95.5l-106 52q-18 -31 -49.5 -50.5t-76.5 -19.5q-59 0 -99 36t-46 96h392q4 11 5.5 25.5t1.5 29.5q0 73 -31 133t-90 96.5t-144 36.5q-76 0 -137.5 -37t-97 -100.5t-35.5 -145.5q0 -79 35 -144t98 -103t147 -38zM309 448q52 0 86.5 -31.5
t38.5 -81.5h-256q11 54 46.5 83.5t84.5 29.5zM393 762h114l75 112h-139zM118 640h122l66 79l68 -79h119l-120 144h-136z" />
    <glyph glyph-name="uni1EC0" unicode="&#x1ec0;" horiz-adv-x="595" 
d="M72 0h495v120h-359v194h339v120h-339v191h359v120h-495v-745zM429 964h96l-49 103h-115zM131 842h122l66 79l68 -79h119l-120 144h-136z" />
    <glyph glyph-name="uni1EC1" unicode="&#x1ec1;" horiz-adv-x="612" 
d="M319 -12q83 0 145.5 37.5t87.5 95.5l-106 52q-18 -31 -49.5 -50.5t-76.5 -19.5q-59 0 -99 36t-46 96h392q4 11 5.5 25.5t1.5 29.5q0 73 -31 133t-90 96.5t-144 36.5q-76 0 -137.5 -37t-97 -100.5t-35.5 -145.5q0 -79 35 -144t98 -103t147 -38zM309 448q52 0 86.5 -31.5
t38.5 -81.5h-256q11 54 46.5 83.5t84.5 29.5zM416 762h96l-49 103h-115zM118 640h122l66 79l68 -79h119l-120 144h-136z" />
    <glyph glyph-name="uni1EC2" unicode="&#x1ec2;" horiz-adv-x="595" 
d="M72 0h495v120h-359v194h339v120h-339v191h359v120h-495v-745zM467 920q64 21 93 53.5t29 69.5q0 44 -36 72t-92 28q-16 0 -32.5 -2t-30.5 -7v-67q20 6 34 6q29 0 45 -13t16 -34q0 -18 -12 -32t-40 -28zM131 842h122l66 79l68 -79h119l-120 144h-136z" />
    <glyph glyph-name="uni1EC3" unicode="&#x1ec3;" horiz-adv-x="612" 
d="M319 -12q83 0 145.5 37.5t87.5 95.5l-106 52q-18 -31 -49.5 -50.5t-76.5 -19.5q-59 0 -99 36t-46 96h392q4 11 5.5 25.5t1.5 29.5q0 73 -31 133t-90 96.5t-144 36.5q-76 0 -137.5 -37t-97 -100.5t-35.5 -145.5q0 -79 35 -144t98 -103t147 -38zM309 448q52 0 86.5 -31.5
t38.5 -81.5h-256q11 54 46.5 83.5t84.5 29.5zM454 718q64 21 93 53.5t29 69.5q0 44 -36 72t-92 28q-16 0 -32.5 -2t-30.5 -7v-67q20 6 34 6q29 0 45 -13t16 -34q0 -18 -12 -32t-40 -28zM118 640h122l66 79l68 -79h119l-120 144h-136z" />
    <glyph glyph-name="uni1EC4" unicode="&#x1ec4;" horiz-adv-x="595" 
d="M72 0h495v120h-359v194h339v120h-339v191h359v120h-495v-745zM389 1017q40 0 62.5 29.5t23.5 93.5h-75q-1 -18 -8.5 -30.5t-23.5 -12.5q-18 0 -31.5 12t-31.5 24t-48 12q-38 0 -65 -29.5t-27 -94.5h75q2 20 9 31.5t23 11.5q18 0 32.5 -11.5t33.5 -23.5t51 -12zM132 842
h122l66 79l68 -79h119l-120 144h-136z" />
    <glyph glyph-name="uni1EC5" unicode="&#x1ec5;" horiz-adv-x="612" 
d="M319 -12q83 0 145.5 37.5t87.5 95.5l-106 52q-18 -31 -49.5 -50.5t-76.5 -19.5q-59 0 -99 36t-46 96h392q4 11 5.5 25.5t1.5 29.5q0 73 -31 133t-90 96.5t-144 36.5q-76 0 -137.5 -37t-97 -100.5t-35.5 -145.5q0 -79 35 -144t98 -103t147 -38zM309 448q52 0 86.5 -31.5
t38.5 -81.5h-256q11 54 46.5 83.5t84.5 29.5zM376 815q40 0 62.5 29.5t23.5 93.5h-75q-1 -18 -8.5 -30.5t-23.5 -12.5q-18 0 -31.5 12t-31.5 24t-48 12q-38 0 -65 -29.5t-27 -94.5h75q2 20 9 31.5t23 11.5q18 0 32.5 -11.5t33.5 -23.5t51 -12zM119 640h122l66 79l68 -79h119
l-120 144h-136z" />
    <glyph glyph-name="uni1EC6" unicode="&#x1ec6;" horiz-adv-x="595" 
d="M72 0h495v120h-359v194h339v120h-339v191h359v120h-495v-745zM320 -225q29 0 50.5 21t21.5 52q0 30 -21.5 51t-50.5 21q-31 0 -52 -21t-21 -51t21 -51.5t52 -21.5zM131 842h122l66 79l68 -79h119l-120 144h-136z" />
    <glyph glyph-name="uni1EC7" unicode="&#x1ec7;" horiz-adv-x="612" 
d="M319 -12q83 0 145.5 37.5t87.5 95.5l-106 52q-18 -31 -49.5 -50.5t-76.5 -19.5q-59 0 -99 36t-46 96h392q4 11 5.5 25.5t1.5 29.5q0 73 -31 133t-90 96.5t-144 36.5q-76 0 -137.5 -37t-97 -100.5t-35.5 -145.5q0 -79 35 -144t98 -103t147 -38zM309 448q52 0 86.5 -31.5
t38.5 -81.5h-256q11 54 46.5 83.5t84.5 29.5zM307 -225q29 0 50.5 21t21.5 52q0 30 -21.5 51t-50.5 21q-31 0 -52 -21t-21 -51t21 -51.5t52 -21.5zM118 640h122l66 79l68 -79h119l-120 144h-136z" />
    <glyph glyph-name="uni1EC8" unicode="&#x1ec8;" horiz-adv-x="279" 
d="M72 0h136v745h-136v-745zM114 792q64 21 93 53.5t29 69.5q0 44 -36 72t-92 28q-16 0 -33 -2t-30 -7v-67q20 6 34 6q29 0 45 -13t16 -34q0 -33 -52 -60z" />
    <glyph glyph-name="uni1EC9" unicode="&#x1ec9;" horiz-adv-x="228" 
d="M49 0h131v544h-131v-544zM88 590q64 21 93 53.5t29 69.5q0 44 -36 72t-92 28q-16 0 -33 -2t-30 -7v-67q20 6 34 6q29 0 45 -13t16 -34q0 -33 -52 -60z" />
    <glyph glyph-name="uni1ECA" unicode="&#x1eca;" horiz-adv-x="279" 
d="M72 0h136v745h-136v-745zM141 -225q29 0 50.5 21t21.5 52q0 30 -21.5 51t-50.5 21q-31 0 -52 -21t-21 -51t21 -51.5t52 -21.5z" />
    <glyph glyph-name="uni1ECB" unicode="&#x1ecb;" horiz-adv-x="252" 
d="M61 605h131v140h-131v-140zM61 0h131v544h-131v-544zM127 -225q29 0 50.5 21t21.5 52q0 30 -21.5 51t-50.5 21q-31 0 -52 -21t-21 -51t21 -51.5t52 -21.5z" />
    <glyph glyph-name="uni1ECC" unicode="&#x1ecc;" horiz-adv-x="878" 
d="M439 -12q83 0 154 29t124 81t82.5 122.5t29.5 152.5q0 83 -29.5 153t-82.5 121.5t-124 80.5t-154 29t-154 -29t-123.5 -80.5t-82 -121.5t-29.5 -153q0 -82 29.5 -152.5t82.5 -122.5t124 -81t153 -29zM439 112q-72 0 -129.5 34t-90.5 93t-33 134t33 133.5t90.5 92.5
t129.5 34q73 0 130 -34t90 -92.5t33 -133.5t-33 -134t-90 -93t-130 -34zM440 -225q29 0 50.5 21t21.5 52q0 30 -21.5 51t-50.5 21q-31 0 -52 -21t-21 -51t21 -51.5t52 -21.5z" />
    <glyph glyph-name="uni1ECD" unicode="&#x1ecd;" horiz-adv-x="652" 
d="M327 -12q79 0 144 36.5t104 101t39 146.5t-38.5 146t-103.5 101t-145 37q-81 0 -146 -37t-103.5 -101t-38.5 -146t38.5 -146t104 -101t145.5 -37zM327 108q-44 0 -78.5 21t-54 58.5t-19.5 84.5t19.5 84t54 58.5t78.5 21.5t77.5 -21.5t53 -58.5t19.5 -84t-19.5 -84.5
t-53 -58.5t-77.5 -21zM327 -225q29 0 50.5 21t21.5 52q0 30 -21.5 51t-50.5 21q-31 0 -52 -21t-21 -51t21 -51.5t52 -21.5z" />
    <glyph glyph-name="uni1ECE" unicode="&#x1ece;" horiz-adv-x="878" 
d="M439 -12q83 0 154 29t124 81t82.5 122.5t29.5 152.5q0 83 -29.5 153t-82.5 121.5t-124 80.5t-154 29t-154 -29t-123.5 -80.5t-82 -121.5t-29.5 -153q0 -82 29.5 -152.5t82.5 -122.5t124 -81t153 -29zM439 112q-72 0 -129.5 34t-90.5 93t-33 134t33 133.5t90.5 92.5
t129.5 34q73 0 130 -34t90 -92.5t33 -133.5t-33 -134t-90 -93t-130 -34zM413 792q64 21 93 53.5t29 69.5q0 44 -36 72t-92 28q-16 0 -33 -2t-30 -7v-67q20 6 34 6q29 0 45 -13t16 -34q0 -33 -52 -60z" />
    <glyph glyph-name="uni1ECF" unicode="&#x1ecf;" horiz-adv-x="652" 
d="M327 -12q79 0 144 36.5t104 101t39 146.5t-38.5 146t-103.5 101t-145 37q-81 0 -146 -37t-103.5 -101t-38.5 -146t38.5 -146t104 -101t145.5 -37zM327 108q-44 0 -78.5 21t-54 58.5t-19.5 84.5t19.5 84t54 58.5t78.5 21.5t77.5 -21.5t53 -58.5t19.5 -84t-19.5 -84.5
t-53 -58.5t-77.5 -21zM300 590q64 21 93 53.5t29 69.5q0 44 -36 72t-92 28q-16 0 -33 -2t-30 -7v-67q20 6 34 6q29 0 45 -13t16 -34q0 -33 -52 -60z" />
    <glyph glyph-name="uni1ED0" unicode="&#x1ed0;" horiz-adv-x="878" 
d="M439 -12q83 0 154 29t124 81t82.5 122.5t29.5 152.5q0 83 -29.5 153t-82.5 121.5t-124 80.5t-154 29t-154 -29t-123.5 -80.5t-82 -121.5t-29.5 -153q0 -82 29.5 -152.5t82.5 -122.5t124 -81t153 -29zM439 112q-72 0 -129.5 34t-90.5 93t-33 134t33 133.5t90.5 92.5
t129.5 34q73 0 130 -34t90 -92.5t33 -133.5t-33 -134t-90 -93t-130 -34zM526 964h114l75 112h-139zM251 842h122l66 79l68 -79h119l-120 144h-136z" />
    <glyph glyph-name="uni1ED1" unicode="&#x1ed1;" horiz-adv-x="652" 
d="M327 -12q79 0 144 36.5t104 101t39 146.5t-38.5 146t-103.5 101t-145 37q-81 0 -146 -37t-103.5 -101t-38.5 -146t38.5 -146t104 -101t145.5 -37zM327 108q-44 0 -78.5 21t-54 58.5t-19.5 84.5t19.5 84t54 58.5t78.5 21.5t77.5 -21.5t53 -58.5t19.5 -84t-19.5 -84.5
t-53 -58.5t-77.5 -21zM413 762h114l75 112h-139zM138 640h122l66 79l68 -79h119l-120 144h-136z" />
    <glyph glyph-name="uni1ED2" unicode="&#x1ed2;" horiz-adv-x="878" 
d="M439 -12q83 0 154 29t124 81t82.5 122.5t29.5 152.5q0 83 -29.5 153t-82.5 121.5t-124 80.5t-154 29t-154 -29t-123.5 -80.5t-82 -121.5t-29.5 -153q0 -82 29.5 -152.5t82.5 -122.5t124 -81t153 -29zM439 112q-72 0 -129.5 34t-90.5 93t-33 134t33 133.5t90.5 92.5
t129.5 34q73 0 130 -34t90 -92.5t33 -133.5t-33 -134t-90 -93t-130 -34zM549 964h96l-49 103h-115zM251 842h122l66 79l68 -79h119l-120 144h-136z" />
    <glyph glyph-name="uni1ED3" unicode="&#x1ed3;" horiz-adv-x="652" 
d="M327 -12q79 0 144 36.5t104 101t39 146.5t-38.5 146t-103.5 101t-145 37q-81 0 -146 -37t-103.5 -101t-38.5 -146t38.5 -146t104 -101t145.5 -37zM327 108q-44 0 -78.5 21t-54 58.5t-19.5 84.5t19.5 84t54 58.5t78.5 21.5t77.5 -21.5t53 -58.5t19.5 -84t-19.5 -84.5
t-53 -58.5t-77.5 -21zM436 762h96l-49 103h-115zM138 640h122l66 79l68 -79h119l-120 144h-136z" />
    <glyph glyph-name="uni1ED4" unicode="&#x1ed4;" horiz-adv-x="878" 
d="M439 -12q83 0 154 29t124 81t82.5 122.5t29.5 152.5q0 83 -29.5 153t-82.5 121.5t-124 80.5t-154 29t-154 -29t-123.5 -80.5t-82 -121.5t-29.5 -153q0 -82 29.5 -152.5t82.5 -122.5t124 -81t153 -29zM439 112q-72 0 -129.5 34t-90.5 93t-33 134t33 133.5t90.5 92.5
t129.5 34q73 0 130 -34t90 -92.5t33 -133.5t-33 -134t-90 -93t-130 -34zM587 920q64 21 93 53.5t29 69.5q0 44 -36 72t-92 28q-16 0 -32.5 -2t-30.5 -7v-67q20 6 34 6q29 0 45 -13t16 -34q0 -18 -12 -32t-40 -28zM251 842h122l66 79l68 -79h119l-120 144h-136z" />
    <glyph glyph-name="uni1ED5" unicode="&#x1ed5;" horiz-adv-x="652" 
d="M327 -12q79 0 144 36.5t104 101t39 146.5t-38.5 146t-103.5 101t-145 37q-81 0 -146 -37t-103.5 -101t-38.5 -146t38.5 -146t104 -101t145.5 -37zM327 108q-44 0 -78.5 21t-54 58.5t-19.5 84.5t19.5 84t54 58.5t78.5 21.5t77.5 -21.5t53 -58.5t19.5 -84t-19.5 -84.5
t-53 -58.5t-77.5 -21zM474 718q64 21 93 53.5t29 69.5q0 44 -36 72t-92 28q-16 0 -32.5 -2t-30.5 -7v-67q20 6 34 6q29 0 45 -13t16 -34q0 -18 -12 -32t-40 -28zM138 640h122l66 79l68 -79h119l-120 144h-136z" />
    <glyph glyph-name="uni1ED6" unicode="&#x1ed6;" horiz-adv-x="878" 
d="M439 -12q83 0 154 29t124 81t82.5 122.5t29.5 152.5q0 83 -29.5 153t-82.5 121.5t-124 80.5t-154 29t-154 -29t-123.5 -80.5t-82 -121.5t-29.5 -153q0 -82 29.5 -152.5t82.5 -122.5t124 -81t153 -29zM439 112q-72 0 -129.5 34t-90.5 93t-33 134t33 133.5t90.5 92.5
t129.5 34q73 0 130 -34t90 -92.5t33 -133.5t-33 -134t-90 -93t-130 -34zM508 1017q40 0 62.5 29.5t23.5 93.5h-75q-1 -18 -8.5 -30.5t-23.5 -12.5q-18 0 -31.5 12t-31.5 24t-48 12q-38 0 -65 -29.5t-27 -94.5h75q2 20 9 31.5t23 11.5q18 0 32.5 -11.5t33.5 -23.5t51 -12z
M251 842h122l66 79l68 -79h119l-120 144h-136z" />
    <glyph glyph-name="uni1ED7" unicode="&#x1ed7;" horiz-adv-x="652" 
d="M327 -12q79 0 144 36.5t104 101t39 146.5t-38.5 146t-103.5 101t-145 37q-81 0 -146 -37t-103.5 -101t-38.5 -146t38.5 -146t104 -101t145.5 -37zM327 108q-44 0 -78.5 21t-54 58.5t-19.5 84.5t19.5 84t54 58.5t78.5 21.5t77.5 -21.5t53 -58.5t19.5 -84t-19.5 -84.5
t-53 -58.5t-77.5 -21zM396 815q40 0 62.5 29.5t23.5 93.5h-75q-1 -18 -8.5 -30.5t-23.5 -12.5q-18 0 -31.5 12t-31.5 24t-48 12q-38 0 -65 -29.5t-27 -94.5h75q2 20 9 31.5t23 11.5q18 0 32.5 -11.5t33.5 -23.5t51 -12zM139 640h122l66 79l68 -79h119l-120 144h-136z" />
    <glyph glyph-name="uni1ED8" unicode="&#x1ed8;" horiz-adv-x="878" 
d="M439 -12q83 0 154 29t124 81t82.5 122.5t29.5 152.5q0 83 -29.5 153t-82.5 121.5t-124 80.5t-154 29t-154 -29t-123.5 -80.5t-82 -121.5t-29.5 -153q0 -82 29.5 -152.5t82.5 -122.5t124 -81t153 -29zM439 112q-72 0 -129.5 34t-90.5 93t-33 134t33 133.5t90.5 92.5
t129.5 34q73 0 130 -34t90 -92.5t33 -133.5t-33 -134t-90 -93t-130 -34zM440 -225q29 0 50.5 21t21.5 52q0 30 -21.5 51t-50.5 21q-31 0 -52 -21t-21 -51t21 -51.5t52 -21.5zM251 842h122l66 79l68 -79h119l-120 144h-136z" />
    <glyph glyph-name="uni1ED9" unicode="&#x1ed9;" horiz-adv-x="652" 
d="M327 -12q79 0 144 36.5t104 101t39 146.5t-38.5 146t-103.5 101t-145 37q-81 0 -146 -37t-103.5 -101t-38.5 -146t38.5 -146t104 -101t145.5 -37zM327 108q-44 0 -78.5 21t-54 58.5t-19.5 84.5t19.5 84t54 58.5t78.5 21.5t77.5 -21.5t53 -58.5t19.5 -84t-19.5 -84.5
t-53 -58.5t-77.5 -21zM327 -225q29 0 50.5 21t21.5 52q0 30 -21.5 51t-50.5 21q-31 0 -52 -21t-21 -51t21 -51.5t52 -21.5zM138 640h122l66 79l68 -79h119l-120 144h-136z" />
    <glyph glyph-name="uni1EDA" unicode="&#x1eda;" horiz-adv-x="878" 
d="M439 -12q83 0 154 29t124 81t82.5 122.5t29.5 152.5q0 89 -35 164t-95 127q50 8 80.5 40t30.5 91q0 27 -6.5 47.5t-16.5 41.5h-118q8 -19 14.5 -39.5t6.5 -37.5q0 -25 -9 -35.5t-20 -12.5t-19 -2h-203q-83 0 -154 -29t-123.5 -80.5t-82 -121.5t-29.5 -153
q0 -82 29.5 -152.5t82.5 -122.5t124 -81t153 -29zM439 112q-72 0 -129.5 34t-90.5 93t-33 134t33 133.5t90.5 92.5t129.5 34q73 0 130 -34t90 -92.5t33 -133.5t-33 -134t-90 -93t-130 -34zM382 842h114l96 144h-147z" />
    <glyph glyph-name="uni1EDB" unicode="&#x1edb;" horiz-adv-x="652" 
d="M327 -12q79 0 144 36.5t104 101t39 146.5q0 62 -23 114.5t-63 90.5q32 15 50 43.5t18 73.5q0 26 -6.5 47t-16.5 42h-113q8 -19 14.5 -39.5t6.5 -37.5q0 -25 -9 -35.5t-20 -12.5t-19 -2h-106q-81 0 -146 -37t-103.5 -101t-38.5 -146t38.5 -146t104 -101t145.5 -37z
M327 108q-44 0 -78.5 21t-54 58.5t-19.5 84.5t19.5 84t54 58.5t78.5 21.5t77.5 -21.5t53 -58.5t19.5 -84t-19.5 -84.5t-53 -58.5t-77.5 -21zM270 640h114l96 144h-147z" />
    <glyph glyph-name="uni1EDC" unicode="&#x1edc;" horiz-adv-x="878" 
d="M439 -12q83 0 154 29t124 81t82.5 122.5t29.5 152.5q0 89 -35 164t-95 127q50 8 80.5 40t30.5 91q0 27 -6.5 47.5t-16.5 41.5h-118q8 -19 14.5 -39.5t6.5 -37.5q0 -25 -9 -35.5t-20 -12.5t-19 -2h-203q-83 0 -154 -29t-123.5 -80.5t-82 -121.5t-29.5 -153
q0 -82 29.5 -152.5t82.5 -122.5t124 -81t153 -29zM439 112q-72 0 -129.5 34t-90.5 93t-33 134t33 133.5t90.5 92.5t129.5 34q73 0 130 -34t90 -92.5t33 -133.5t-33 -134t-90 -93t-130 -34zM382 842h115l-63 144h-147z" />
    <glyph glyph-name="uni1EDD" unicode="&#x1edd;" horiz-adv-x="652" 
d="M327 -12q79 0 144 36.5t104 101t39 146.5q0 62 -23 114.5t-63 90.5q32 15 50 43.5t18 73.5q0 26 -6.5 47t-16.5 42h-113q8 -19 14.5 -39.5t6.5 -37.5q0 -25 -9 -35.5t-20 -12.5t-19 -2h-106q-81 0 -146 -37t-103.5 -101t-38.5 -146t38.5 -146t104 -101t145.5 -37z
M327 108q-44 0 -78.5 21t-54 58.5t-19.5 84.5t19.5 84t54 58.5t78.5 21.5t77.5 -21.5t53 -58.5t19.5 -84t-19.5 -84.5t-53 -58.5t-77.5 -21zM269 640h115l-63 144h-147z" />
    <glyph glyph-name="uni1EDE" unicode="&#x1ede;" horiz-adv-x="878" 
d="M439 -12q83 0 154 29t124 81t82.5 122.5t29.5 152.5q0 89 -35 164t-95 127q50 8 80.5 40t30.5 91q0 27 -6.5 47.5t-16.5 41.5h-118q8 -19 14.5 -39.5t6.5 -37.5q0 -25 -9 -35.5t-20 -12.5t-19 -2h-203q-83 0 -154 -29t-123.5 -80.5t-82 -121.5t-29.5 -153
q0 -82 29.5 -152.5t82.5 -122.5t124 -81t153 -29zM439 112q-72 0 -129.5 34t-90.5 93t-33 134t33 133.5t90.5 92.5t129.5 34q73 0 130 -34t90 -92.5t33 -133.5t-33 -134t-90 -93t-130 -34zM413 792q64 21 93 53.5t29 69.5q0 44 -36 72t-92 28q-16 0 -33 -2t-30 -7v-67
q20 6 34 6q29 0 45 -13t16 -34q0 -33 -52 -60z" />
    <glyph glyph-name="uni1EDF" unicode="&#x1edf;" horiz-adv-x="652" 
d="M327 -12q79 0 144 36.5t104 101t39 146.5q0 62 -23 114.5t-63 90.5q32 15 50 43.5t18 73.5q0 26 -6.5 47t-16.5 42h-113q8 -19 14.5 -39.5t6.5 -37.5q0 -25 -9 -35.5t-20 -12.5t-19 -2h-106q-81 0 -146 -37t-103.5 -101t-38.5 -146t38.5 -146t104 -101t145.5 -37z
M327 108q-44 0 -78.5 21t-54 58.5t-19.5 84.5t19.5 84t54 58.5t78.5 21.5t77.5 -21.5t53 -58.5t19.5 -84t-19.5 -84.5t-53 -58.5t-77.5 -21zM300 590q64 21 93 53.5t29 69.5q0 44 -36 72t-92 28q-16 0 -33 -2t-30 -7v-67q20 6 34 6q29 0 45 -13t16 -34q0 -33 -52 -60z" />
    <glyph glyph-name="uni1EE0" unicode="&#x1ee0;" horiz-adv-x="878" 
d="M439 -12q83 0 154 29t124 81t82.5 122.5t29.5 152.5q0 89 -35 164t-95 127q50 8 80.5 40t30.5 91q0 27 -6.5 47.5t-16.5 41.5h-118q8 -19 14.5 -39.5t6.5 -37.5q0 -25 -9 -35.5t-20 -12.5t-19 -2h-203q-83 0 -154 -29t-123.5 -80.5t-82 -121.5t-29.5 -153
q0 -82 29.5 -152.5t82.5 -122.5t124 -81t153 -29zM439 112q-72 0 -129.5 34t-90.5 93t-33 134t33 133.5t90.5 92.5t129.5 34q73 0 130 -34t90 -92.5t33 -133.5t-33 -134t-90 -93t-130 -34zM512 854q42 0 65.5 30.5t23.5 101.5h-84q0 -17 -7.5 -30t-22.5 -13q-18 0 -31.5 12
t-31.5 24t-49 12q-40 0 -68 -30.5t-28 -102.5h83q2 19 9 31.5t23 12.5q18 0 32.5 -12t33.5 -24t52 -12z" />
    <glyph glyph-name="uni1EE1" unicode="&#x1ee1;" horiz-adv-x="652" 
d="M327 -12q79 0 144 36.5t104 101t39 146.5q0 62 -23 114.5t-63 90.5q32 15 50 43.5t18 73.5q0 26 -6.5 47t-16.5 42h-113q8 -19 14.5 -39.5t6.5 -37.5q0 -25 -9 -35.5t-20 -12.5t-19 -2h-106q-81 0 -146 -37t-103.5 -101t-38.5 -146t38.5 -146t104 -101t145.5 -37z
M327 108q-44 0 -78.5 21t-54 58.5t-19.5 84.5t19.5 84t54 58.5t78.5 21.5t77.5 -21.5t53 -58.5t19.5 -84t-19.5 -84.5t-53 -58.5t-77.5 -21zM399 652q42 0 65.5 30.5t23.5 101.5h-84q0 -17 -7.5 -30t-22.5 -13q-18 0 -31.5 12t-31.5 24t-49 12q-40 0 -68 -30.5t-28 -102.5
h83q2 19 9 31.5t23 12.5q18 0 32.5 -12t33.5 -24t52 -12z" />
    <glyph glyph-name="uni1EE2" unicode="&#x1ee2;" horiz-adv-x="878" 
d="M439 -12q83 0 154 29t124 81t82.5 122.5t29.5 152.5q0 89 -35 164t-95 127q50 8 80.5 40t30.5 91q0 27 -6.5 47.5t-16.5 41.5h-118q8 -19 14.5 -39.5t6.5 -37.5q0 -25 -9 -35.5t-20 -12.5t-19 -2h-203q-83 0 -154 -29t-123.5 -80.5t-82 -121.5t-29.5 -153
q0 -82 29.5 -152.5t82.5 -122.5t124 -81t153 -29zM439 112q-72 0 -129.5 34t-90.5 93t-33 134t33 133.5t90.5 92.5t129.5 34q73 0 130 -34t90 -92.5t33 -133.5t-33 -134t-90 -93t-130 -34zM440 -225q29 0 50.5 21t21.5 52q0 30 -21.5 51t-50.5 21q-31 0 -52 -21t-21 -51
t21 -51.5t52 -21.5z" />
    <glyph glyph-name="uni1EE3" unicode="&#x1ee3;" horiz-adv-x="652" 
d="M327 -12q79 0 144 36.5t104 101t39 146.5q0 62 -23 114.5t-63 90.5q32 15 50 43.5t18 73.5q0 26 -6.5 47t-16.5 42h-113q8 -19 14.5 -39.5t6.5 -37.5q0 -25 -9 -35.5t-20 -12.5t-19 -2h-106q-81 0 -146 -37t-103.5 -101t-38.5 -146t38.5 -146t104 -101t145.5 -37z
M327 108q-44 0 -78.5 21t-54 58.5t-19.5 84.5t19.5 84t54 58.5t78.5 21.5t77.5 -21.5t53 -58.5t19.5 -84t-19.5 -84.5t-53 -58.5t-77.5 -21zM327 -225q29 0 50.5 21t21.5 52q0 30 -21.5 51t-50.5 21q-31 0 -52 -21t-21 -51t21 -51.5t52 -21.5z" />
    <glyph glyph-name="uni1EE4" unicode="&#x1ee4;" horiz-adv-x="718" 
d="M359 -12q86 0 152.5 36t104.5 99t38 143v479h-136v-472q0 -47 -20.5 -83.5t-56 -57t-82.5 -20.5q-46 0 -82 20.5t-56.5 57t-20.5 83.5v472h-136v-479q0 -80 38 -143t104.5 -99t152.5 -36zM360 -225q29 0 50.5 21t21.5 52q0 30 -21.5 51t-50.5 21q-31 0 -52 -21t-21 -51
t21 -51.5t52 -21.5z" />
    <glyph glyph-name="uni1EE5" unicode="&#x1ee5;" 
d="M255 -12q51 0 90.5 19.5t62.5 57.5v-65h124v544h-131v-319q0 -54 -31 -85.5t-79 -31.5q-49 0 -79.5 31t-30.5 83v322h-131v-333q0 -100 54.5 -161.5t150.5 -61.5zM297 -225q29 0 50.5 21t21.5 52q0 30 -21.5 51t-50.5 21q-31 0 -52 -21t-21 -51t21 -51.5t52 -21.5z" />
    <glyph glyph-name="uni1EE6" unicode="&#x1ee6;" horiz-adv-x="718" 
d="M359 -12q86 0 152.5 36t104.5 99t38 143v479h-136v-472q0 -47 -20.5 -83.5t-56 -57t-82.5 -20.5q-46 0 -82 20.5t-56.5 57t-20.5 83.5v472h-136v-479q0 -80 38 -143t104.5 -99t152.5 -36zM333 792q64 21 93 53.5t29 69.5q0 44 -36 72t-92 28q-16 0 -33 -2t-30 -7v-67
q20 6 34 6q29 0 45 -13t16 -34q0 -33 -52 -60z" />
    <glyph glyph-name="uni1EE7" unicode="&#x1ee7;" 
d="M255 -12q51 0 90.5 19.5t62.5 57.5v-65h124v544h-131v-319q0 -54 -31 -85.5t-79 -31.5q-49 0 -79.5 31t-30.5 83v322h-131v-333q0 -100 54.5 -161.5t150.5 -61.5zM270 590q64 21 93 53.5t29 69.5q0 44 -36 72t-92 28q-16 0 -33 -2t-30 -7v-67q20 6 34 6q29 0 45 -13
t16 -34q0 -33 -52 -60z" />
    <glyph glyph-name="uni1EE8" unicode="&#x1ee8;" horiz-adv-x="718" 
d="M359 -12q86 0 152.5 36t104.5 99t38 143v383q65 0 106 32.5t41 101.5q0 27 -6.5 47.5t-17.5 41.5h-117q8 -19 14.5 -39.5t6.5 -37.5q0 -25 -9 -35.5t-20 -12.5t-19 -2h-115v-472q0 -47 -20.5 -83.5t-56 -57t-82.5 -20.5q-46 0 -82 20.5t-56.5 57t-20.5 83.5v472h-136
v-479q0 -80 38 -143t104.5 -99t152.5 -36zM302 842h114l96 144h-147z" />
    <glyph glyph-name="uni1EE9" unicode="&#x1ee9;" horiz-adv-x="660" 
d="M255 -12q51 0 90.5 19.5t62.5 57.5v-65h124v452q54 6 87 37.5t33 92.5q0 26 -6.5 47t-16.5 42h-113q8 -19 14 -39.5t6 -37.5q0 -25 -8.5 -35.5t-20 -12.5t-19.5 -2h-87v-319q0 -54 -31 -85.5t-79 -31.5q-49 0 -79.5 31t-30.5 83v322h-131v-333q0 -100 54.5 -161.5
t150.5 -61.5zM240 640h114l96 144h-147z" />
    <glyph glyph-name="uni1EEA" unicode="&#x1eea;" horiz-adv-x="718" 
d="M359 -12q86 0 152.5 36t104.5 99t38 143v383q65 0 106 32.5t41 101.5q0 27 -6.5 47.5t-17.5 41.5h-117q8 -19 14.5 -39.5t6.5 -37.5q0 -25 -9 -35.5t-20 -12.5t-19 -2h-115v-472q0 -47 -20.5 -83.5t-56 -57t-82.5 -20.5q-46 0 -82 20.5t-56.5 57t-20.5 83.5v472h-136
v-479q0 -80 38 -143t104.5 -99t152.5 -36zM302 842h115l-63 144h-147z" />
    <glyph glyph-name="uni1EEB" unicode="&#x1eeb;" horiz-adv-x="660" 
d="M255 -12q51 0 90.5 19.5t62.5 57.5v-65h124v452q54 6 87 37.5t33 92.5q0 26 -6.5 47t-16.5 42h-113q8 -19 14 -39.5t6 -37.5q0 -25 -8.5 -35.5t-20 -12.5t-19.5 -2h-87v-319q0 -54 -31 -85.5t-79 -31.5q-49 0 -79.5 31t-30.5 83v322h-131v-333q0 -100 54.5 -161.5
t150.5 -61.5zM239 640h115l-63 144h-147z" />
    <glyph glyph-name="uni1EEC" unicode="&#x1eec;" horiz-adv-x="718" 
d="M359 -12q86 0 152.5 36t104.5 99t38 143v383q65 0 106 32.5t41 101.5q0 27 -6.5 47.5t-17.5 41.5h-117q8 -19 14.5 -39.5t6.5 -37.5q0 -25 -9 -35.5t-20 -12.5t-19 -2h-115v-472q0 -47 -20.5 -83.5t-56 -57t-82.5 -20.5q-46 0 -82 20.5t-56.5 57t-20.5 83.5v472h-136
v-479q0 -80 38 -143t104.5 -99t152.5 -36zM333 792q64 21 93 53.5t29 69.5q0 44 -36 72t-92 28q-16 0 -33 -2t-30 -7v-67q20 6 34 6q29 0 45 -13t16 -34q0 -33 -52 -60z" />
    <glyph glyph-name="uni1EED" unicode="&#x1eed;" horiz-adv-x="660" 
d="M255 -12q51 0 90.5 19.5t62.5 57.5v-65h124v452q54 6 87 37.5t33 92.5q0 26 -6.5 47t-16.5 42h-113q8 -19 14 -39.5t6 -37.5q0 -25 -8.5 -35.5t-20 -12.5t-19.5 -2h-87v-319q0 -54 -31 -85.5t-79 -31.5q-49 0 -79.5 31t-30.5 83v322h-131v-333q0 -100 54.5 -161.5
t150.5 -61.5zM270 590q64 21 93 53.5t29 69.5q0 44 -36 72t-92 28q-16 0 -33 -2t-30 -7v-67q20 6 34 6q29 0 45 -13t16 -34q0 -33 -52 -60z" />
    <glyph glyph-name="uni1EEE" unicode="&#x1eee;" horiz-adv-x="718" 
d="M359 -12q86 0 152.5 36t104.5 99t38 143v383q65 0 106 32.5t41 101.5q0 27 -6.5 47.5t-17.5 41.5h-117q8 -19 14.5 -39.5t6.5 -37.5q0 -25 -9 -35.5t-20 -12.5t-19 -2h-115v-472q0 -47 -20.5 -83.5t-56 -57t-82.5 -20.5q-46 0 -82 20.5t-56.5 57t-20.5 83.5v472h-136
v-479q0 -80 38 -143t104.5 -99t152.5 -36zM432 854q42 0 65.5 30.5t23.5 101.5h-84q0 -17 -7.5 -30t-22.5 -13q-18 0 -31.5 12t-31.5 24t-49 12q-40 0 -68 -30.5t-28 -102.5h83q2 19 9 31.5t23 12.5q18 0 32.5 -12t33.5 -24t52 -12z" />
    <glyph glyph-name="uni1EEF" unicode="&#x1eef;" horiz-adv-x="660" 
d="M255 -12q51 0 90.5 19.5t62.5 57.5v-65h124v452q54 6 87 37.5t33 92.5q0 26 -6.5 47t-16.5 42h-113q8 -19 14 -39.5t6 -37.5q0 -25 -8.5 -35.5t-20 -12.5t-19.5 -2h-87v-319q0 -54 -31 -85.5t-79 -31.5q-49 0 -79.5 31t-30.5 83v322h-131v-333q0 -100 54.5 -161.5
t150.5 -61.5zM369 652q42 0 65.5 30.5t23.5 101.5h-84q0 -17 -7.5 -30t-22.5 -13q-18 0 -31.5 12t-31.5 24t-49 12q-40 0 -68 -30.5t-28 -102.5h83q2 19 9 31.5t23 12.5q18 0 32.5 -12t33.5 -24t52 -12z" />
    <glyph glyph-name="uni1EF0" unicode="&#x1ef0;" horiz-adv-x="718" 
d="M359 -12q86 0 152.5 36t104.5 99t38 143v383q65 0 106 32.5t41 101.5q0 27 -6.5 47.5t-17.5 41.5h-117q8 -19 14.5 -39.5t6.5 -37.5q0 -25 -9 -35.5t-20 -12.5t-19 -2h-115v-472q0 -47 -20.5 -83.5t-56 -57t-82.5 -20.5q-46 0 -82 20.5t-56.5 57t-20.5 83.5v472h-136
v-479q0 -80 38 -143t104.5 -99t152.5 -36zM360 -225q29 0 50.5 21t21.5 52q0 30 -21.5 51t-50.5 21q-31 0 -52 -21t-21 -51t21 -51.5t52 -21.5z" />
    <glyph glyph-name="uni1EF1" unicode="&#x1ef1;" horiz-adv-x="660" 
d="M255 -12q51 0 90.5 19.5t62.5 57.5v-65h124v452q54 6 87 37.5t33 92.5q0 26 -6.5 47t-16.5 42h-113q8 -19 14 -39.5t6 -37.5q0 -25 -8.5 -35.5t-20 -12.5t-19.5 -2h-87v-319q0 -54 -31 -85.5t-79 -31.5q-49 0 -79.5 31t-30.5 83v322h-131v-333q0 -100 54.5 -161.5
t150.5 -61.5zM297 -225q29 0 50.5 21t21.5 52q0 30 -21.5 51t-50.5 21q-31 0 -52 -21t-21 -51t21 -51.5t52 -21.5z" />
    <glyph glyph-name="Ygrave" unicode="&#x1ef2;" horiz-adv-x="660" 
d="M262 0h137v331l250 414h-155l-164 -277l-164 277h-155l251 -415v-330zM273 842h115l-63 144h-147z" />
    <glyph glyph-name="ygrave" unicode="&#x1ef3;" horiz-adv-x="586" 
d="M127 -221q77 0 128.5 43.5t82.5 122.5l237 599h-142l-140 -375l-141 375h-141l215 -544l-12 -29q-16 -34 -36.5 -55t-65.5 -21q-16 0 -34 2.5t-32 6.5v-110q17 -8 38 -11.5t43 -3.5zM235 640h115l-63 144h-147z" />
    <glyph glyph-name="uni1EF4" unicode="&#x1ef4;" horiz-adv-x="660" 
d="M262 0h137v331l250 414h-155l-164 -277l-164 277h-155l251 -415v-330zM331 -225q29 0 50.5 21t21.5 52q0 30 -21.5 51t-50.5 21q-31 0 -52 -21t-21 -51t21 -51.5t52 -21.5z" />
    <glyph glyph-name="uni1EF5" unicode="&#x1ef5;" horiz-adv-x="586" 
d="M127 -221q77 0 128.5 43.5t82.5 122.5l237 599h-142l-140 -375l-141 375h-141l215 -544l-12 -29q-16 -34 -36.5 -55t-65.5 -21q-16 0 -34 2.5t-32 6.5v-110q17 -8 38 -11.5t43 -3.5zM536 -125q29 0 50.5 21t21.5 52q0 30 -21.5 51t-50.5 21q-31 0 -52 -21t-21 -51
t21 -51.5t52 -21.5z" />
    <glyph glyph-name="uni1EF6" unicode="&#x1ef6;" horiz-adv-x="660" 
d="M262 0h137v331l250 414h-155l-164 -277l-164 277h-155l251 -415v-330zM304 792q64 21 93 53.5t29 69.5q0 44 -36 72t-92 28q-16 0 -33 -2t-30 -7v-67q20 6 34 6q29 0 45 -13t16 -34q0 -33 -52 -60z" />
    <glyph glyph-name="uni1EF7" unicode="&#x1ef7;" horiz-adv-x="586" 
d="M127 -221q77 0 128.5 43.5t82.5 122.5l237 599h-142l-140 -375l-141 375h-141l215 -544l-12 -29q-16 -34 -36.5 -55t-65.5 -21q-16 0 -34 2.5t-32 6.5v-110q17 -8 38 -11.5t43 -3.5zM266 590q64 21 93 53.5t29 69.5q0 44 -36 72t-92 28q-16 0 -33 -2t-30 -7v-67
q20 6 34 6q29 0 45 -13t16 -34q0 -33 -52 -60z" />
    <glyph glyph-name="uni1EF8" unicode="&#x1ef8;" horiz-adv-x="660" 
d="M262 0h137v331l250 414h-155l-164 -277l-164 277h-155l251 -415v-330zM403 854q42 0 65.5 30.5t23.5 101.5h-84q0 -17 -7.5 -30t-22.5 -13q-18 0 -31.5 12t-31.5 24t-49 12q-40 0 -68 -30.5t-28 -102.5h83q2 19 9 31.5t23 12.5q18 0 32.5 -12t33.5 -24t52 -12z" />
    <glyph glyph-name="uni1EF9" unicode="&#x1ef9;" horiz-adv-x="586" 
d="M127 -221q77 0 128.5 43.5t82.5 122.5l237 599h-142l-140 -375l-141 375h-141l215 -544l-12 -29q-16 -34 -36.5 -55t-65.5 -21q-16 0 -34 2.5t-32 6.5v-110q17 -8 38 -11.5t43 -3.5zM365 652q42 0 65.5 30.5t23.5 101.5h-84q0 -17 -7.5 -30t-22.5 -13q-18 0 -31.5 12
t-31.5 24t-49 12q-40 0 -68 -30.5t-28 -102.5h83q2 19 9 31.5t23 12.5q18 0 32.5 -12t33.5 -24t52 -12z" />
    <glyph glyph-name="uni2007" unicode="&#x2007;" horiz-adv-x="708" 
 />
    <glyph glyph-name="uni2008" unicode="&#x2008;" horiz-adv-x="378" 
 />
    <glyph glyph-name="uni2009" unicode="&#x2009;" horiz-adv-x="200" 
 />
    <glyph glyph-name="uni200A" unicode="&#x200a;" horiz-adv-x="143" 
 />
    <glyph glyph-name="uni200B" unicode="&#x200b;" horiz-adv-x="0" 
 />
    <glyph glyph-name="uni2010" unicode="&#x2010;" horiz-adv-x="600" 
d="M110 214h425v115h-425v-115z" />
    <glyph glyph-name="figuredash" unicode="&#x2012;" horiz-adv-x="655" 
d="M110 214h480v115h-480v-115z" />
    <glyph glyph-name="endash" unicode="&#x2013;" horiz-adv-x="655" 
d="M88 214h480v115h-480v-115z" />
    <glyph glyph-name="emdash" unicode="&#x2014;" horiz-adv-x="985" 
d="M88 214h810v115h-810v-115z" />
    <glyph glyph-name="uni2015" unicode="&#x2015;" horiz-adv-x="985" 
d="M110 214h810v115h-810v-115z" />
    <glyph glyph-name="quoteleft" unicode="&#x2018;" horiz-adv-x="357" 
d="M103 471h132v140h-61q5 30 26 52t55 30v64q-75 -16 -113.5 -68t-38.5 -132v-86z" />
    <glyph glyph-name="quoteright" unicode="&#x2019;" horiz-adv-x="357" 
d="M103 459q75 16 113.5 68t38.5 132v86h-132v-140h61q-6 -30 -26.5 -52t-54.5 -30v-64z" />
    <glyph glyph-name="quotesinglbase" unicode="&#x201a;" horiz-adv-x="357" 
d="M103 -146q75 16 113.5 68t38.5 132v86h-132v-140h61q-6 -30 -26.5 -52t-54.5 -30v-64z" />
    <glyph glyph-name="quotedblleft" unicode="&#x201c;" horiz-adv-x="560" 
d="M305 471h133v140h-61q5 30 26 52t55 30v64q-76 -16 -114.5 -68t-38.5 -132v-86zM103 471h132v140h-61q5 30 26 52t55 30v64q-75 -16 -113.5 -68t-38.5 -132v-86z" />
    <glyph glyph-name="quotedblright" unicode="&#x201d;" horiz-adv-x="560" 
d="M305 459q76 16 114.5 68t38.5 132v86h-133v-140h61q-5 -30 -26 -52t-55 -30v-64zM103 459q75 16 113.5 68t38.5 132v86h-132v-140h61q-6 -30 -26.5 -52t-54.5 -30v-64z" />
    <glyph glyph-name="quotedblbase" unicode="&#x201e;" horiz-adv-x="560" 
d="M103 -146q75 16 113.5 68t38.5 132v86h-132v-140h61q-6 -30 -26.5 -52t-54.5 -30v-64zM305 -146q76 16 114 68t38 132v86h-132v-140h61q-5 -30 -26 -52t-55 -30v-64z" />
    <glyph glyph-name="dagger" unicode="&#x2020;" horiz-adv-x="674" 
d="M271 -190h132v604h204v124h-204v207h-132v-207h-204v-124h204v-604z" />
    <glyph glyph-name="daggerdbl" unicode="&#x2021;" horiz-adv-x="709" 
d="M288 -190h133v207h203v124h-203v273h203v124h-203v207h-133v-207h-204v-124h204v-273h-204v-124h204v-207z" />
    <glyph glyph-name="bullet" unicode="&#x2022;" horiz-adv-x="568" 
d="M286 111q45 0 81.5 21.5t57.5 58.5t21 83q0 45 -21 81.5t-57.5 57.5t-81.5 21q-46 0 -83 -21t-58.5 -57.5t-21.5 -81.5q0 -46 21.5 -83t58.5 -58.5t83 -21.5z" />
    <glyph glyph-name="ellipsis" unicode="&#x2026;" horiz-adv-x="778" 
d="M123 0h132v140h-132v-140zM323 0h132v140h-132v-140zM523 0h132v140h-132v-140z" />
    <glyph glyph-name="perthousand" unicode="&#x2030;" horiz-adv-x="1481" 
d="M270 367q55 0 99 26.5t70 70.5t26 98t-26 98.5t-70 70.5t-99 26t-100 -26t-71 -70.5t-26 -98.5t26 -98t71 -70.5t100 -26.5zM153 0h140l604 745h-140zM270 468q-43 0 -67.5 29t-24.5 65t24.5 65.5t67.5 29.5t66.5 -29.5t23.5 -65.5t-23.5 -65t-66.5 -29zM777 -12
q55 0 99.5 26.5t70.5 70.5t26 98t-26 98.5t-70.5 70.5t-99.5 26t-99.5 -26t-70.5 -70.5t-26 -98.5t26 -98t70.5 -70.5t99.5 -26.5zM1212 -12q55 0 99 26.5t70 70.5t26 98t-26 98.5t-70 70.5t-99 26t-100 -26t-71 -70.5t-26 -98.5t26 -98t71 -70.5t100 -26.5zM777 89
q-43 0 -67 29t-24 65t24 65.5t67 29.5t67 -29.5t24 -65.5t-24 -65t-67 -29zM1212 89q-43 0 -67.5 29t-24.5 65t24.5 65.5t67.5 29.5t66.5 -29.5t23.5 -65.5t-23.5 -65t-66.5 -29z" />
    <glyph glyph-name="minute" unicode="&#x2032;" horiz-adv-x="372" 
d="M131 462h102l16 283h-118v-283z" />
    <glyph glyph-name="second" unicode="&#x2033;" horiz-adv-x="558" 
d="M131 462h102l16 283h-118v-283zM318 462h102l15 283h-117v-283z" />
    <glyph glyph-name="guilsinglleft" unicode="&#x2039;" horiz-adv-x="389" 
d="M198 72h145l-152 197l152 198h-145l-153 -198z" />
    <glyph glyph-name="guilsinglright" unicode="&#x203a;" horiz-adv-x="389" 
d="M46 72h144l154 197l-154 198h-144l152 -198z" />
    <glyph glyph-name="fraction" unicode="&#x2044;" horiz-adv-x="205" 
d="M-176 0h108l446 745h-108z" />
    <glyph glyph-name="uni2070" unicode="&#x2070;" horiz-adv-x="478" 
d="M239 215q63 0 110.5 34t73.5 95t26 141q0 81 -26 141.5t-73.5 94t-110.5 33.5t-110 -33.5t-73.5 -94t-26.5 -141.5q0 -80 26.5 -141t74 -95t109.5 -34zM239 314q-48 0 -74.5 46t-26.5 125q0 81 26.5 125.5t74.5 44.5q49 0 75.5 -45t26.5 -125q0 -79 -26.5 -125t-75.5 -46
z" />
    <glyph glyph-name="uni2074" unicode="&#x2074;" horiz-adv-x="474" 
d="M262 224h108v112h80v91h-80v318h-116l-224 -317v-92h232v-112zM262 427h-127l127 186v-186z" />
    <glyph glyph-name="uni2075" unicode="&#x2075;" horiz-adv-x="425" 
d="M208 215q55 0 97.5 24t67.5 64.5t25 91.5q0 76 -45.5 124t-123.5 48q-47 0 -77 -17l14 105h213v90h-290l-43 -291l89 -21q9 23 30 33.5t43 10.5q37 0 59 -23t22 -59q0 -37 -23 -59t-58 -22q-28 0 -51 15t-34 47l-96 -32q9 -40 36.5 -69t65.5 -44.5t79 -15.5z" />
    <glyph glyph-name="uni2076" unicode="&#x2076;" horiz-adv-x="420" 
d="M211 215q54 0 96 23.5t65.5 63.5t23.5 92q0 47 -21.5 84t-59 59t-85.5 22h-9l147 186h-130l-145 -188q-38 -49 -53 -87.5t-15 -80.5q0 -49 24 -88.5t66 -62.5t96 -23zM211 314q-32 0 -54.5 21.5t-22.5 56.5t22.5 56t54.5 21t54 -21t22 -56t-22 -56.5t-54 -21.5z" />
    <glyph glyph-name="uni2077" unicode="&#x2077;" horiz-adv-x="386" 
d="M45 224h121l204 431v91h-355v-91h241z" />
    <glyph glyph-name="uni2078" unicode="&#x2078;" horiz-adv-x="449" 
d="M223 215q59 0 101.5 22t65.5 58t23 79q0 82 -75 123q26 17 41 47t15 65q0 42 -22.5 75t-61 51.5t-87.5 18.5t-87.5 -18.5t-60 -51.5t-21.5 -75q0 -34 14 -64.5t40 -47.5q-73 -39 -73 -123q0 -43 22.5 -79t65 -58t100.5 -22zM223 540q-28 0 -45 18t-17 43q0 26 17 44
t45 18t45 -18t17 -44q0 -25 -17 -43t-45 -18zM223 307q-35 0 -57 20t-22 51q0 32 21.5 51t57.5 19q37 0 59.5 -19t22.5 -51q0 -31 -23 -51t-59 -20z" />
    <glyph glyph-name="uni2079" unicode="&#x2079;" horiz-adv-x="420" 
d="M53 224h130l146 188q42 54 54.5 92.5t12.5 76.5q0 50 -23.5 89t-65.5 61.5t-96 22.5t-96 -23t-66 -63t-24 -92q0 -46 21.5 -83.5t59 -59.5t85.5 -22h9zM211 500q-31 0 -54 21.5t-23 55.5q0 35 22.5 57t54.5 22t54 -22t22 -57q0 -34 -22 -55.5t-54 -21.5z" />
    <glyph glyph-name="uni207A" unicode="&#x207a;" horiz-adv-x="510" 
d="M211 308h88v132h131v88h-131v130h-88v-130h-131v-88h131v-132z" />
    <glyph glyph-name="uni207B" unicode="&#x207b;" horiz-adv-x="577" 
d="M131 440h315v88h-315v-88z" />
    <glyph glyph-name="uni207C" unicode="&#x207c;" horiz-adv-x="577" 
d="M131 512h315v88h-315v-88zM131 340h315v89h-315v-89z" />
    <glyph glyph-name="uni207D" unicode="&#x207d;" horiz-adv-x="308" 
d="M184 98h87q-49 75 -73.5 156.5t-24.5 166.5q0 170 98 324h-87q-120 -138 -120 -324q0 -93 31 -174t89 -149z" />
    <glyph glyph-name="uni207E" unicode="&#x207e;" horiz-adv-x="308" 
d="M37 98h86q62 73 91.5 154t29.5 169q0 91 -29.5 172.5t-91.5 151.5h-86q48 -76 73 -156t25 -168q0 -84 -24.5 -166t-73.5 -157z" />
    <glyph glyph-name="uni2080" unicode="&#x2080;" horiz-adv-x="478" 
d="M239 -9q63 0 110.5 34t73.5 95t26 141q0 81 -26 141.5t-73.5 94t-110.5 33.5t-110 -33.5t-73.5 -94t-26.5 -141.5q0 -80 26.5 -141t74 -95t109.5 -34zM239 90q-48 0 -74.5 46t-26.5 125q0 81 26.5 125.5t74.5 44.5q49 0 75.5 -45t26.5 -125q0 -79 -26.5 -125t-75.5 -46z
" />
    <glyph glyph-name="uni2081" unicode="&#x2081;" horiz-adv-x="315" 
d="M117 0h109v521h-210v-91h101v-430z" />
    <glyph glyph-name="uni2082" unicode="&#x2082;" horiz-adv-x="410" 
d="M23 0h355v92h-216l119 123q43 44 67 83t24 85q0 65 -48 106t-126 41q-41 0 -78.5 -16t-64 -46t-35.5 -72l95 -30q10 33 32.5 49.5t50.5 16.5t46.5 -16.5t18.5 -45.5q0 -17 -9.5 -35t-31 -43t-58.5 -63l-141 -145v-84z" />
    <glyph glyph-name="uni2083" unicode="&#x2083;" horiz-adv-x="425" 
d="M202 -9q55 0 98.5 24t68.5 64.5t25 92.5q0 60 -33 100.5t-89 49.5l101 115v84h-324v-90h202l-133 -146l25 -52q28 13 59 13q39 0 61 -21t22 -56q0 -37 -22.5 -58t-60.5 -21q-31 0 -54.5 16.5t-36.5 49.5l-95 -33q10 -39 37.5 -69t66.5 -46.5t82 -16.5z" />
    <glyph glyph-name="uni2084" unicode="&#x2084;" horiz-adv-x="474" 
d="M262 0h108v112h80v91h-80v318h-116l-224 -317v-92h232v-112zM262 203h-127l127 186v-186z" />
    <glyph glyph-name="uni2085" unicode="&#x2085;" horiz-adv-x="425" 
d="M208 -9q55 0 97.5 24t67.5 64.5t25 91.5q0 76 -45.5 124t-123.5 48q-47 0 -77 -17l14 105h213v90h-290l-43 -291l89 -21q9 23 30 33.5t43 10.5q37 0 59 -23t22 -59q0 -37 -23 -59t-58 -22q-28 0 -51 15t-34 47l-96 -32q9 -40 36.5 -69t65.5 -44.5t79 -15.5z" />
    <glyph glyph-name="uni2086" unicode="&#x2086;" horiz-adv-x="420" 
d="M211 -9q54 0 96 23.5t65.5 63.5t23.5 92q0 47 -21.5 84t-59 59t-85.5 22h-9l147 186h-130l-145 -188q-38 -49 -53 -87.5t-15 -80.5q0 -49 24 -88.5t66 -62.5t96 -23zM211 90q-32 0 -54.5 21.5t-22.5 56.5t22.5 56t54.5 21t54 -21t22 -56t-22 -56.5t-54 -21.5z" />
    <glyph glyph-name="uni2087" unicode="&#x2087;" horiz-adv-x="386" 
d="M45 0h121l204 431v91h-355v-91h241z" />
    </font>
</defs>
</svg>
